<?xml version="1.0" standalone="no"?>
<!DOCTYPE svg PUBLIC "-//W3C//DTD SVG 1.1//EN" "http://www.w3.org/Graphics/SVG/1.1/DTD/svg11.dtd">
<svg xmlns="http://www.w3.org/2000/svg">
<metadata>Generated by Fontastic.me</metadata>
<defs>
<font id="fodboldpakker" horiz-adv-x="512">
<font-face font-family="fodboldpakker" units-per-em="512" ascent="480" descent="-32"/>
<missing-glyph horiz-adv-x="512" />

<glyph glyph-name="arrow-circle-left" unicode="&#97;" d="M256 27c-127 0-229 102-229 229 0 127 102 229 229 229 127 0 229-102 229-229 0-127-102-229-229-229z m0 426c-109 0-197-88-197-197 0-109 88-197 197-197 109 0 197 88 197 197 0 109-88 197-197 197z m27-288c-4 0-8 1-11 4l-76 76c-6 6-6 16 0 22l76 76c6 6 16 6 22 0 6-7 6-17 0-23l-64-64 64-64c6-6 6-16 0-23-3-3-7-4-11-4z"/>
<glyph glyph-name="close-circle" unicode="&#98;" d="M256 27c-127 0-229 102-229 229 0 127 102 229 229 229 127 0 229-102 229-229 0-127-102-229-229-229z m0 426c-109 0-197-88-197-197 0-109 88-197 197-197 109 0 197 88 197 197 0 109-88 197-197 197z m-60-273c-4 0-8 1-12 4-6 7-6 17 0 23l121 121c6 6 16 6 23 0 6-6 6-17 0-23l-121-121c-3-3-7-4-11-4z m120 0c-4 0-8 1-11 4l-121 121c-6 6-6 17 0 23 6 6 17 6 23 0l121-121c6-6 6-16 0-23-4-3-8-4-12-4z"/>
<glyph glyph-name="filter-square" unicode="&#99;" d="M243 109c-7 0-14 2-21 5-13 7-21 21-21 36l0 65c0 4-3 12-6 16l-46 49c-9 9-16 24-16 36l0 28c0 24 18 42 41 42l164 0c22 0 40-18 40-41l0-27c0-15-8-31-17-40l-54-48c-3-3-7-10-7-16l0-54c0-13-8-28-19-34l-16-11c-7-4-15-6-22-6z m-69 245c-5 0-9-4-9-10l0-28c0-3 3-10 7-14l47-50c7-9 14-23 14-37l0-65c0-5 3-7 5-8 2-1 6-2 9 0l18 11c1 1 3 6 3 8l0 53c0 15 8 32 19 41l52 47c3 3 7 11 7 17l0 26c0 5-4 9-8 9z m146-327l-128 0c-116 0-165 49-165 165l0 128c0 116 49 165 165 165l128 0c116 0 165-49 165-165l0-128c0-116-49-165-165-165z m-128 426c-98 0-133-35-133-133l0-128c0-98 35-133 133-133l128 0c98 0 133 35 133 133l0 128c0 98-35 133-133 133z"/>
<glyph glyph-name="home-2" unicode="&#100;" d="M380 27l-248 0c-58 0-105 47-105 106l0 158c0 29 18 65 41 83l115 90c34 27 89 28 125 3l132-93c25-17 45-55 45-86l0-156c0-58-47-105-105-105z m-178 412l-115-90c-15-12-28-39-28-58l0-158c0-41 33-74 73-74l248 0c40 0 73 33 73 73l0 156c0 20-14 49-31 60l-132 93c-24 17-65 16-88-2z m54-327c-9 0-16 7-16 16l0 64c0 9 7 16 16 16 9 0 16-7 16-16l0-64c0-9-7-16-16-16z"/>
<glyph glyph-name="search-normal-1" unicode="&#101;" d="M245 48c-120 0-218 98-218 219 0 120 98 218 218 218 121 0 219-98 219-218 0-121-98-219-219-219z m0 405c-103 0-186-84-186-186 0-103 83-187 186-187 103 0 187 84 187 187 0 102-84 186-187 186z m224-426c-4 0-8 1-11 4l-43 43c-6 6-6 16 0 23 7 6 17 6 23 0l43-43c6-6 6-16 0-23-4-3-8-4-12-4z"/>
<glyph glyph-name="share" unicode="&#102;" d="M440 233c-8 0-15 6-16 14-5 49-31 92-71 120-8 5-9 15-4 22 5 8 15 9 22 4 48-33 78-85 84-142 1-9-5-17-14-18 0 0-1 0-1 0z m-366-1c0 0-1 0-1 0-9 1-15 9-15 18 6 57 37 109 84 143 7 5 17 3 22-4 5-8 4-18-4-23-39-28-65-71-70-120 0-8-7-14-16-14z m183-202c-31 0-61 7-90 21-7 4-11 14-7 22 4 7 14 11 22 7 46-24 102-24 148-2 8 4 18 1 21-7 4-8 1-18-7-22-27-13-56-19-87-19z m0 302c-41 0-75 34-75 75 0 42 34 76 75 76 42 0 76-34 76-76 0-41-34-75-76-75z m0 118c-24 0-43-19-43-43 0-24 19-43 43-43 24 0 44 19 44 43 0 24-20 43-44 43z m-154-379c-42 0-75 34-75 75 0 42 33 76 75 76 42 0 75-34 75-76 0-41-33-75-75-75z m0 119c-24 0-43-20-43-44 0-24 19-43 43-43 24 0 43 19 43 43 0 24-19 44-43 44z m306-119c-42 0-75 34-75 75 0 42 33 76 75 76 42 0 75-34 75-76 0-41-34-75-75-75z m0 119c-24 0-43-20-43-44 0-24 19-43 43-43 24 0 43 19 43 43 0 24-19 44-43 44z"/>
<glyph glyph-name="receipt" unicode="&#103;" d="M256 27c-17 0-33 8-44 23l-21 29c-5 6-11 9-17 10-7 0-13-3-18-8l-12 11 11-11c-30-33-54-30-65-26-12 5-31 19-31 67l0 240c0 95 27 123 116 123l162 0c89 0 116-28 116-123l0-240c0-48-19-62-31-67-11-4-34-7-65 26-5 5-12 8-18 8-7-1-13-4-18-10l-21-29c-11-15-27-23-44-23z m-84 94c1 0 2 0 3 0 16-1 31-9 41-23l21-28c11-14 27-14 37 0l22 28c10 14 25 22 41 23 16 1 31-6 43-18 16-17 27-20 30-18 6 2 11 14 11 37l0 240c0 77-13 91-85 91l-161 0c-71 0-84-14-84-91l0-240c0-23 5-35 10-37 4-2 15 1 31 18 11 12 26 18 40 18z m169 226l-170 0c-9 0-16 7-16 16 0 8 7 16 16 16l170 0c9 0 16-8 16-16 0-9-7-16-16-16z m-21-86l-128 0c-9 0-16 8-16 16 0 9 7 16 16 16l128 0c9 0 16-7 16-16 0-8-7-16-16-16z"/>
<glyph glyph-name="calendar-search" unicode="&#105;" d="M171 389c-9 0-16 8-16 16l0 64c0 9 7 16 16 16 8 0 16-7 16-16l0-64c0-8-8-16-16-16z m170 0c-8 0-16 8-16 16l0 64c0 9 8 16 16 16 9 0 16-7 16-16l0-64c0-8-7-16-16-16z m47-350c-46 0-84 38-84 85 0 46 38 84 84 84 47 0 85-38 85-84 0-47-38-85-85-85z m0 137c-29 0-52-23-52-52 0-29 23-53 52-53 29 0 53 24 53 53 0 29-24 52-53 52z m81-149c-4 0-8 1-11 4l-21 22c-7 6-7 16 0 22 6 6 16 6 22 0l22-21c6-6 6-16 0-23-4-3-8-4-12-4z m-288 176c-2 0-5 0-8 1-3 1-5 3-7 5-1 1-2 2-2 3-1 1-2 3-2 4-1 1-1 2-2 4 0 1 0 3 0 4 0 6 2 11 6 15 2 2 4 4 7 5 8 3 18 1 23-5 4-4 7-9 7-15 0-1-1-3-1-4 0-2 0-3-1-4 0-1-1-3-2-4-1-1-2-2-3-3-4-4-9-6-15-6z m75 0c-6 0-11 2-15 6-4 4-6 9-6 15 0 3 0 6 1 8 1 3 3 5 5 7 8 8 22 8 30 0 4-4 6-9 6-15 0-1 0-3 0-4 0-2-1-3-1-4-1-1-1-3-2-4-1-1-2-2-3-3-4-4-9-6-15-6z m-75-75c-5 0-11 2-15 6-4 4-6 10-6 15 0 3 1 6 2 8 1 3 2 6 4 7 8 8 23 8 30 0 4-4 7-9 7-15 0-5-3-11-7-15-4-4-9-6-15-6z m256 174l-362 0c-9 0-16 7-16 16 0 9 7 16 16 16l362 0c9 0 16-7 16-16 0-9-7-16-16-16z m-152-275l-114 0c-78 0-123 44-123 122l0 182c0 78 45 122 123 122l170 0c78 0 123-44 123-122l0-96c0-9-7-16-16-16-9 0-16 7-16 16l0 96c0 61-30 90-91 90l-170 0c-61 0-91-29-91-90l0-182c0-61 30-90 91-90l114 0c9 0 16-8 16-16 0-9-7-16-16-16z"/>
<glyph glyph-name="arrow-right-4" unicode="&#106;" d="M190 103c-14 0-26 4-37 10-26 15-41 46-41 86l0 114c0 40 15 71 41 86 26 15 59 12 94-8l99-57c35-20 54-48 54-78 0-30-19-58-54-78l-99-57c-20-12-39-18-57-18z m0 273c-8 0-15-1-21-5-16-9-25-30-25-58l0-114c0-28 9-49 25-58 16-9 38-6 62 8l99 57c25 14 38 32 38 50 0 18-13 36-38 50l-99 57c-15 9-29 13-41 13z"/>
<glyph glyph-name="tick" unicode="&#107;" d="M226 180c-5 0-9 1-12 4l-60 61c-6 6-6 16 0 22 6 6 16 6 23 0l49-49 109 110c7 6 17 6 23 0 6-6 6-17 0-23l-121-121c-3-3-7-4-11-4z"/>
<glyph glyph-name="crown" unicode="&#108;" d="M363 63l-214 0c-67 0-122 55-122 123l0 204c0 28 12 37 20 41 8 3 24 5 43-14l55-56c3-2 6-2 8 0l77 77c14 14 38 14 52 0l77-77c2-2 5-2 7 0l56 56c19 19 35 17 43 14 7-4 20-13 20-41l0-204c0-74-49-123-122-123z m-303 337c-1-2-1-5-1-10l0-204c0-50 40-91 90-91l214 0c55 0 90 36 90 91l0 204c0 5 0 8-1 10-2-1-4-3-8-6l-55-55c-14-15-39-15-53 0l-76 76c-3 2-6 2-8 0l-76-76c-14-14-39-14-53 0l-55 55c-4 4-7 5-8 6z"/>
<glyph glyph-name="sms" unicode="&#109;" d="M363 59l-214 0c-78 0-122 44-122 122l0 150c0 78 44 122 122 122l214 0c78 0 122-44 122-122l0-150c0-78-44-122-122-122z m-214 362c-61 0-90-29-90-90l0-150c0-61 29-90 90-90l214 0c61 0 90 29 90 90l0 150c0 61-29 90-90 90z m107-184c-18 0-36 6-50 17l-67 54c-7 5-8 15-2 22 5 7 15 8 22 3l67-54c16-13 44-13 60 0l67 54c6 5 17 4 22-3 6-7 4-17-3-22l-66-54c-14-11-32-17-50-17z"/>
<glyph glyph-name="call" unicode="&#110;" d="M372 27c-24 0-49 5-75 17-26 10-52 25-77 43-25 19-49 39-72 62-23 23-43 47-61 71-19 26-33 52-44 76-11 27-16 52-16 76 0 17 3 33 8 48 6 15 16 29 29 41 16 16 35 24 55 24 9 0 17-2 24-5 9-4 16-10 21-17l49-70c5-6 8-12 11-18 2-7 4-13 4-19 0-8-3-16-7-24-3-5-8-12-14-18l-15-15c0-1 1-1 1-1 2-5 8-13 17-24 11-12 21-23 30-33 13-12 23-22 33-30 12-10 20-16 25-18l0-1 15 15c7 7 13 12 19 15 12 7 27 9 42 2 6-2 11-5 18-10l71-50c8-5 13-12 17-20 3-8 4-16 4-23 0-10-2-21-6-30-5-10-10-18-17-26-13-13-26-23-41-29-15-6-31-9-48-9z m-253 426c-11 0-22-5-33-15-10-9-16-19-21-30-4-11-6-23-6-36 0-19 4-41 14-63 9-23 23-46 40-70 17-23 36-46 58-67 21-22 44-41 68-59 23-16 46-30 70-40 36-15 71-19 99-7 11 4 20 11 29 21 5 5 9 11 12 18 2 5 4 11 4 16 0 4-1 7-3 11 0 1-2 3-6 6l-70 51c-5 3-9 5-12 6-5 2-7 4-14 0-4-3-8-6-12-10l-17-16c-8-8-21-10-31-6l-5 2c-9 5-19 12-31 22-10 8-21 19-34 32-11 11-21 22-32 34-10 12-17 22-22 31l-3 6c-1 5-1 8-1 11 0 7 3 14 8 19l16 17c4 4 7 8 9 12 2 3 3 5 3 7 0 2-1 5-2 7-1 4-4 7-7 11l-49 70c-2 3-5 5-8 7-3 1-7 2-11 2z m179-261l-4-15 6 15c-1 0-2 0-2 0z"/>
<glyph glyph-name="call-calling" unicode="&#111;" d="M372 27c-24 0-49 5-75 17-26 10-52 25-77 43-25 19-49 39-72 62-23 23-43 47-61 71-19 26-33 52-44 76-11 27-16 52-16 76 0 17 3 33 8 48 6 15 16 29 29 41 16 16 35 24 55 24 9 0 17-2 24-5 9-4 16-10 21-17l49-70c5-6 8-12 11-18 2-7 4-13 4-19 0-8-3-16-7-24-3-5-8-12-14-18l-15-15c0-1 1-1 1-1 2-5 8-13 17-24 11-12 21-23 30-33 13-12 23-22 33-30 12-10 20-16 25-18l0-1 15 15c7 7 13 12 19 15 12 7 27 9 42 2 6-2 11-5 18-10l71-50c8-5 13-12 17-20 3-8 4-16 4-23 0-10-2-21-6-30-5-10-10-18-17-26-13-13-26-23-41-29-15-6-31-9-48-9z m-253 426c-11 0-22-5-33-15-10-9-16-19-21-30-4-11-6-23-6-36 0-19 4-41 14-63 9-23 23-46 40-70 17-23 36-46 58-67 21-22 44-41 68-59 23-16 46-30 70-40 36-15 71-19 99-7 11 4 20 11 29 21 5 5 9 11 12 18 2 5 4 11 4 16 0 4-1 7-3 11 0 1-2 3-6 6l-70 51c-5 3-9 5-12 6-5 2-7 4-14 0-4-3-8-6-12-10l-17-16c-8-8-21-10-31-6l-5 2c-9 5-19 12-31 22-10 8-21 19-34 32-11 11-21 22-32 34-10 12-17 22-22 31l-3 6c-1 5-1 8-1 11 0 7 3 14 8 19l16 17c4 4 7 8 9 12 2 3 3 5 3 7 0 2-1 5-2 7-1 4-4 7-7 11l-49 70c-2 3-5 5-8 7-3 1-7 2-11 2z m179-261l-4-15 6 15c-1 0-2 0-2 0z m97 112c-9 0-16 7-16 16 0 8-8 24-21 37-12 14-26 22-38 22-9 0-16 7-16 16 0 8 7 16 16 16 21 0 42-11 61-32 18-19 30-42 30-59 0-9-8-16-16-16z m74 0c-8 0-16 7-16 16 0 74-59 133-133 133-9 0-16 8-16 16 0 9 7 16 16 16 91 0 165-74 165-165 0-9-7-16-16-16z"/>
<glyph glyph-name="clock" unicode="&#112;" d="M256 27c-127 0-229 102-229 229 0 127 102 229 229 229 127 0 229-102 229-229 0-127-102-229-229-229z m0 426c-109 0-197-88-197-197 0-109 88-197 197-197 109 0 197 88 197 197 0 109-88 197-197 197z m79-281c-3 0-5 1-8 2l-66 40c-17 10-29 31-29 50l0 88c0 8 8 16 16 16 9 0 16-8 16-16l0-88c0-7 7-19 13-23l66-39c8-4 11-14 6-22-3-5-9-8-14-8z"/>
<glyph glyph-name="more-circle" unicode="&#113;" d="M256 27c-127 0-229 102-229 229 0 127 102 229 229 229 127 0 229-102 229-229 0-127-102-229-229-229z m0 426c-109 0-197-88-197-197 0-109 88-197 197-197 109 0 197 88 197 197 0 109-88 197-197 197z m0-218c-12 0-21 9-21 21 0 12 9 21 21 21 12 0 21-9 21-21 0-12-9-21-21-21z m85 0c-12 0-21 9-21 21 0 12 10 21 21 21 12 0 22-9 22-21 0-12-10-21-22-21z m-170 0c-12 0-22 9-22 21 0 12 10 21 22 21 11 0 21-9 21-21 0-12-9-21-21-21z"/>
<glyph glyph-name="arrow-right-1" unicode="&#114;" d="M128 313l0-114c0-71 50-100 111-64l28 15c6 4 10 11 10 19l0 174c0 8-4 15-10 19l-28 15c-61 36-111 7-111-64z m171 11l0-137c0-8 9-13 16-9l23 14c61 35 61 93 0 128l-23 14c-7 4-16-1-16-10z"/>
<glyph glyph-name="airplane" unicode="&#115;" d="M183 31c-5 0-10 1-14 3-10 4-18 12-21 23l-9 28c-5 13-1 29 8 38l49 49c1 1 1 3 1 4l0 53-97-42c-13-6-26-5-36 1-10 7-16 19-16 33l0 27c0 21 15 44 34 51l115 50 0 61c0 25 18 55 41 67 11 6 24 6 35 0 23-12 42-41 42-67l0-61 116-50c19-8 33-30 33-51l0-27c0-14-6-26-16-33-10-6-23-7-36-2l-97 42 0-52c0-1 0-3 1-4l49-49c9-9 13-26 9-38l-10-28c-3-11-11-19-21-23-10-4-21-4-31 1-1 1-2 1-3 2l-50 42c-2 1-5 1-7 0l-49-42c-1-1-2-1-3-2-5-3-11-4-17-4z m21 233c5 0 10-2 14-4 7-5 11-14 11-23l0-61c0-9-4-20-10-27l-49-48c-1-1-2-5-1-6l9-28c1-2 2-3 3-4 1 0 2 0 3 0l48 40c13 12 35 12 48 0l48-40c1 0 2 0 3 1 1 0 2 1 3 3l9 28c1 2 0 5-1 6l-48 48c-7 6-11 17-11 27l0 61c0 9 4 17 11 22 7 5 16 6 25 2l105-45c4-1 6-1 6-1 1 0 2 2 2 6l0 27c0 8-7 19-14 22l-119 51c-10 4-16 15-16 25l0 64c0 14-11 32-24 38-2 1-4 1-6 0-12-6-24-25-24-38l0-64c0-10-6-21-16-25l-119-51c-7-3-14-14-14-22l0-27c0-4 1-6 2-6 0 0 2 0 6 1l104 45c4 2 8 3 12 3z"/>
<glyph glyph-name="arrow-circle-right" unicode="&#116;" d="M256 27c-127 0-229 102-229 229 0 127 102 229 229 229 127 0 229-102 229-229 0-127-102-229-229-229z m0 426c-109 0-197-88-197-197 0-109 88-197 197-197 109 0 197 88 197 197 0 109-88 197-197 197z m-27-288c-4 0-8 1-11 4-6 7-6 17 0 23l64 64-64 64c-6 6-6 16 0 23 6 6 16 6 22 0l76-76c6-6 6-16 0-22l-76-76c-3-3-7-4-11-4z"/>
<glyph glyph-name="building-4" unicode="&#118;" d="M491 27l-470 0c-8 0-16 7-16 16 0 8 8 16 16 16l470 0c8 0 16-8 16-16 0-9-8-16-16-16z m-69-1c-9 0-16 8-16 16l0 96c0 8 7 16 16 16 9 0 16-8 16-16l0-96c0-8-7-16-16-16z m0 96c-34 0-63 28-63 63l0 48c0 35 29 63 63 63 35 0 63-28 63-63l0-48c0-35-28-63-63-63z m0 142c-17 0-31-14-31-31l0-49c0-17 14-31 31-31 17 0 31 14 31 31l0 49c0 17-14 31-31 31z m-117-237c-9 0-16 7-16 16l0 340c0 34-14 49-48 49l-132 0c-34 0-48-15-48-49l0-340c0-9-8-16-16-16-9 0-16 7-16 16l0 340c0 52 28 81 80 81l132 0c52 0 80-29 80-81l0-340c0-9-7-16-16-16z m-76 293l-105 0c-9 0-16 7-16 16 0 9 7 16 16 16l105 0c9 0 16-7 16-16 0-9-7-16-16-16z m0-80l-105 0c-9 0-16 7-16 16 0 9 7 16 16 16l105 0c9 0 16-7 16-16 0-9-7-16-16-16z m-53-213c-9 0-16 7-16 16l0 80c0 8 7 16 16 16 9 0 16-8 16-16l0-80c0-9-7-16-16-16z"/>
<glyph glyph-name="calendar-2" unicode="&#119;" d="M171 389c-9 0-16 8-16 16l0 64c0 9 7 16 16 16 8 0 16-7 16-16l0-64c0-8-8-16-16-16z m170 0c-8 0-16 8-16 16l0 64c0 9 8 16 16 16 9 0 16-7 16-16l0-64c0-8-7-16-16-16z m96-87l-362 0c-9 0-16 7-16 16 0 9 7 16 16 16l362 0c9 0 16-7 16-16 0-9-7-16-16-16z m-96-275l-170 0c-78 0-123 44-123 122l0 182c0 78 45 122 123 122l170 0c78 0 123-44 123-122l0-182c0-78-45-122-123-122z m-170 394c-61 0-91-29-91-90l0-182c0-61 30-90 91-90l170 0c61 0 91 29 91 90l0 182c0 61-30 90-91 90z m10-218c-2 0-5 0-8 1-2 1-5 3-7 5-2 2-3 4-4 7-1 2-2 5-2 8 0 6 2 11 6 15 2 2 5 4 7 5 4 1 8 2 13 1 1 0 2-1 3-1 2-1 3-1 4-2 1-1 2-2 3-3 1-1 2-2 3-3 1-1 2-3 2-4 1-1 1-2 1-4 0-1 1-3 1-4 0-6-3-11-7-15-4-4-9-6-15-6z m75 0c-6 0-11 2-15 6-1 1-2 2-3 3-1 1-1 3-2 4 0 1-1 2-1 4 0 1 0 3 0 4 0 3 0 6 1 8 1 3 3 5 5 7 6 6 15 8 23 5 3-1 5-3 7-5 4-4 6-9 6-15 0-1 0-3 0-4 0-2-1-3-1-4-1-1-1-3-2-4-1-1-2-2-3-3-2-2-4-4-7-5-2-1-5-1-8-1z m-75-75c-2 0-5 1-8 2-2 1-5 2-7 4-2 2-3 4-4 7-1 3-2 6-2 8 0 6 2 11 6 16 2 1 5 3 7 4 8 3 18 1 23-4 1-2 2-3 3-4 1-1 2-2 2-4 1-1 1-2 1-4 0-1 1-2 1-4 0-5-3-11-7-15-4-4-9-6-15-6z"/>
<glyph glyph-name="courthouse" unicode="&#120;" d="M469 27l-426 0c-9 0-16 7-16 16 0 8 7 16 16 16l426 0c9 0 16-8 16-16 0-9-7-16-16-16z m-160 352c-20 0-40 4-59 12-6 2-10 8-10 15l0 64c0 5 3 10 7 13 5 3 10 3 15 1 30-12 64-12 95 0 5 2 10 2 15-1 4-3 7-8 7-13l0-64c0-7-4-13-10-15-20-8-40-12-60-12z m-37 38c24-8 50-8 75 0l0 31c-25-6-50-6-75 0z m-16-92c-9 0-16 8-16 16l0 64c0 9 7 16 16 16 9 0 16-7 16-16l0-64c0-8-7-16-16-16z m171-298l-342 0c-8 0-16 7-16 16l0 234c0 52 29 80 80 80l214 0c51 0 80-28 80-80l0-234c0-9-8-16-16-16z m-326 32l310 0 0 218c0 34-15 48-48 48l-214 0c-33 0-48-14-48-48z m313 181l-316 0c-9 0-16 7-16 16 0 9 7 16 16 16l316 0c9 0 16-7 16-16 0-9-7-16-16-16z m-228 16l-32 0 0-213 32 0z m86 0l-32 0 0-213 32 0z m85 0l-32 0 0-213 32 0z"/>
<glyph glyph-name="medal-star" unicode="&#121;" d="M453 118l-35-8c-8-2-14-8-16-16l-7-31c-4-18-26-23-37-9l-64 73c-5 6-2 15 5 17 38 9 72 31 97 61 4 4 11 5 16 1l47-48c16-16 11-36-6-40z m-395 0l35-8c8-2 14-8 16-16l7-31c4-18 26-23 37-9l64 73c5 6 2 15-5 17-38 9-72 31-97 61-4 4-11 5-16 1l-47-48c-16-16-11-36 6-40z m198 351c-83 0-149-66-149-149 0-31 9-59 25-83 23-34 59-58 102-64 7-2 14-2 22-2 8 0 15 0 22 2 43 6 79 30 102 64 16 24 25 52 25 83 0 83-66 149-149 149z m65-144l-17-18c-3-3-5-9-4-13l5-22c4-17-5-24-20-15l-22 13c-4 2-10 2-14 0l-21-13c-16-9-25-2-21 15l5 22c1 4 0 10-3 13l-18 18c-11 10-7 21 7 23l23 4c4 0 8 4 10 7l13 25c6 14 18 14 24 0l13-25c2-3 6-7 10-7l23-4c14-2 18-13 7-23z"/>
<glyph glyph-name="blur" unicode="&#122;" d="M256 27c-104 0-189 84-189 188 0 123 116 224 166 263 14 10 32 10 46 0 50-39 166-142 166-263 0-104-85-188-189-188z m0 426c-1 0-2 0-3-1-36-27-154-126-154-237 0-86 71-156 157-156 87 0 157 70 157 156 1 109-117 209-154 237-1 1-2 1-3 1z m0-426c-9 0-16 7-16 16l0 426c0 9 7 16 16 16 9 0 16-7 16-16l0-426c0-9-7-16-16-16z m0 65c-6 0-12 3-15 8-3 8 0 18 8 22l164 80c8 3 18 0 22-8 3-8 0-17-8-21l-164-80c-2-1-5-1-7-1z m0 106c-6 0-12 4-15 9-3 8 0 18 8 22l157 76c8 4 18 1 22-8 3-8 0-17-8-21l-157-76c-2-1-5-2-7-2z m0 107c-6 0-12 3-15 9-3 8 0 17 8 21l107 52c8 4 18 1 22-7 3-8 0-18-8-22l-107-52c-2-1-5-1-7-1z"/>
<glyph glyph-name="box" unicode="&#65;" d="M256 228c-3 0-6 1-8 2l-188 109c-8 5-11 15-6 22 4 8 14 11 22 6l180-104 179 103c8 5 18 2 22-5 5-8 2-18-6-22l-187-109c-2-1-5-2-8-2z m0-193c-9 0-16 7-16 16l0 193c0 9 7 16 16 16 9 0 16-7 16-16l0-193c0-9-7-16-16-16z m0-8c-19 0-37 4-52 12l-114 63c-31 17-55 58-55 94l0 120c0 36 24 77 55 94l114 63c29 16 75 16 104 0l114-63c31-17 55-58 55-94l0-120c0-36-24-77-55-94l-114-63c-15-8-33-12-52-12z m0 426c-13 0-27-2-36-8l-114-63c-21-12-39-42-39-66l0-120c0-24 18-55 39-66l114-63c19-11 53-11 72 0l114 63c21 11 39 42 39 66l0 120c0 24-18 54-39 66l-114 63c-9 6-23 8-36 8z m107-239c-9 0-16 7-16 16l0 68-195 112c-8 5-10 15-6 22 5 8 14 10 22 6l203-117c4-3 8-8 8-14l0-78c0-8-8-15-16-15z"/>
<glyph glyph-name="buildings-2" unicode="&#66;" d="M143 112l-54 0c-40 0-62 23-62 62l0 249c0 40 22 62 62 62l91 0c40 0 62-22 62-62l0-39c0-9-7-16-16-16-9 0-16 7-16 16l0 39c0 22-8 30-30 30l-91 0c-22 0-30-8-30-30l0-249c0-22 8-30 30-30l54 0c9 0 16-7 16-16 0-9-7-16-16-16z m176-85l-124 0c-43 0-68 24-68 67l0 238c0 43 25 68 68 68l124 0c43 0 68-25 68-68l0-238c0-43-25-67-68-67z m-124 341c-26 0-36-10-36-36l0-238c0-25 10-35 36-35l124 0c26 0 36 10 36 35l0 238c0 26-10 36-36 36z m228-256l-52 0c-9 0-16 7-16 16 0 9 7 16 16 16l52 0c22 0 30 8 30 30l0 249c0 22-8 30-30 30l-91 0c-22 0-30-8-30-30l0-39c0-9-7-16-16-16-9 0-16 7-16 16l0 39c0 40 22 62 62 62l91 0c40 0 62-22 62-62l0-249c0-39-22-62-62-62z m-124 149l-86 0c-8 0-16 8-16 16 0 9 8 16 16 16l86 0c8 0 16-7 16-16 0-8-8-16-16-16z m0-64l-86 0c-8 0-16 8-16 16 0 9 8 16 16 16l86 0c8 0 16-7 16-16 0-8-8-16-16-16z m-43-170c-9 0-16 7-16 16l0 64c0 8 7 16 16 16 9 0 16-8 16-16l0-64c0-9-7-16-16-16z"/>
<glyph glyph-name="clipboard" unicode="&#67;" d="M278 98c-11 0-23 1-37 3l-100 16c-31 5-55 13-74 26-46 33-44 88-38 127l16 100c15 92 62 126 154 112l100-16c47-7 110-26 114-106 1-13 0-29-3-47l-15-100c-13-79-49-115-117-115z m-117 355c-51 0-74-25-84-88l-16-100c-10-63 8-84 25-96 14-10 34-17 60-21l100-16c75-11 106 11 117 86l16 100c2 16 3 29 2 41l0 0c-2 45-27 67-87 76l-100 16c-12 1-23 2-33 2z m152-426c-18 0-38 4-62 11l-96 32c-55 19-85 45-94 83-1 6 1 13 7 16 5 4 13 4 18 0 14-10 34-17 60-21l100-16c75-11 106 11 117 86l16 100c2 16 3 29 2 41 0 5 3 11 8 14 5 3 11 3 16 1 57-31 72-80 48-154l-32-97c-15-45-35-73-63-87-13-6-28-9-45-9z m-191 93c11-6 24-13 43-19l96-32c37-12 63-14 82-4 20 10 35 32 47 68l32 97c18 52 11 81-9 100-1-6-2-11-3-17l-15-100c-15-92-62-126-154-112l-100 15c-6 2-13 3-19 4z m54 185c-29 0-53 24-53 53 0 29 24 53 53 53 29 0 53-24 53-53 0-29-24-53-53-53z m0 74c-12 0-21-10-21-21 0-12 9-22 21-22 11 0 21 10 21 22 0 11-10 21-21 21z"/>
<glyph glyph-name="direct-up" unicode="&#68;" d="M387 48c-13 0-26 3-39 9l-69 35c-14 7-32 7-46 0l-70-35c-33-16-71-10-97 17-26 26-32 65-15 98l131 247c14 28 43 45 74 45 31 0 60-17 74-45l131-247c17-33 11-72-15-98-16-17-37-26-59-26z m-131 81c13 0 26-3 38-8l69-35c25-13 47-3 60 10 13 13 22 36 9 61l-130 247c-9 18-26 28-46 28-20 0-37-10-46-28l-130-247c-13-25-4-48 9-61 13-13 35-23 60-10l69 34c12 6 25 9 38 9z"/>
<glyph glyph-name="gps" unicode="&#69;" d="M256 80c-97 0-176 79-176 176 0 97 79 176 176 176 97 0 176-79 176-176 0-97-79-176-176-176z m0 320c-79 0-144-65-144-144 0-79 65-144 144-144 79 0 144 65 144 144 0 79-65 144-144 144z m0-224c-44 0-80 36-80 80 0 44 36 80 80 80 44 0 80-36 80-80 0-44-36-80-80-80z m0 128c-26 0-48-22-48-48 0-26 22-48 48-48 26 0 48 22 48 48 0 26-22 48-48 48z m0 107c-9 0-16 7-16 16l0 42c0 9 7 16 16 16 9 0 16-7 16-16l0-42c0-9-7-16-16-16z m-171-171l-42 0c-9 0-16 7-16 16 0 9 7 16 16 16l42 0c9 0 16-7 16-16 0-9-7-16-16-16z m171-213c-9 0-16 7-16 16l0 42c0 9 7 16 16 16 9 0 16-7 16-16l0-42c0-9-7-16-16-16z m213 213l-42 0c-9 0-16 7-16 16 0 9 7 16 16 16l42 0c9 0 16-7 16-16 0-9-7-16-16-16z"/>
<glyph glyph-name="house" unicode="&#70;" d="M469 27l-426 0c-9 0-16 7-16 16 0 8 7 16 16 16l426 0c9 0 16-8 16-16 0-9-7-16-16-16z m-390 16l-32 0 1 256c0 18 8 35 23 46l149 117c21 16 51 16 72 0l149-116c14-11 23-29 23-47l0-256-32 0 0 256c0 8-4 16-10 21l-150 116c-9 8-23 8-32 0l-150-116c-6-5-10-13-10-21z m230-16l-106 0c-9 0-16 7-16 16l0 74c0 27 21 48 48 48l42 0c27 0 48-21 48-48l0-74c0-9-7-16-16-16z m-90 32l74 0 0 58c0 9-7 16-16 16l-42 0c-9 0-16-7-16-16z m-16 144l-43 0c-20 0-37 17-37 37l0 32c0 20 17 37 37 37l43 0c20 0 37-17 37-37l0-32c0-20-17-37-37-37z m-43 74c-3 0-5-2-5-5l0-32c0-3 2-5 5-5l43 0c3 0 5 2 5 5l0 32c0 3-2 5-5 5z m192-74l-43 0c-20 0-37 17-37 37l0 32c0 20 17 37 37 37l43 0c20 0 37-17 37-37l0-32c0-20-17-37-37-37z m-43 74c-3 0-5-2-5-5l0-32c0-3 2-5 5-5l43 0c3 0 5 2 5 5l0 32c0 3-2 5-5 5z m96 70c-8 0-16 7-16 15l0 49-78 0c-9 0-16 7-16 16 0 8 7 16 16 16l94 0c9 0 16-7 16-16l1-64c-1-9-8-16-17-16 0 0 1 0 0 0z"/>
<glyph glyph-name="info-circle" unicode="&#71;" d="M256 27c-127 0-229 102-229 229 0 127 102 229 229 229 127 0 229-102 229-229 0-127-102-229-229-229z m0 426c-109 0-197-88-197-197 0-109 88-197 197-197 109 0 197 88 197 197 0 109-88 197-197 197z m0-234c-9 0-16 7-16 16l0 106c0 9 7 16 16 16 9 0 16-7 16-16l0-106c0-9-7-16-16-16z m0-70c-3 0-6 1-8 2-3 1-5 3-7 5-2 2-4 4-5 7-1 2-1 5-1 8 0 2 0 5 1 8 1 2 3 5 5 7 2 2 4 3 7 4 5 2 11 2 16 0 3-1 5-2 7-4 2-2 4-5 5-7 1-3 1-6 1-8 0-3 0-6-1-8-1-3-3-5-5-7-2-2-4-4-7-5-2-1-5-2-8-2z"/>
<glyph glyph-name="user-tag" unicode="&#72;" d="M256 27c-15 0-30 5-41 17l-37 36c-9 9-21 14-34 14l-16 0c-44 0-80 35-80 79l0 233c0 43 36 79 80 79l256 0c44 0 80-36 80-79l0-233c0-44-36-79-80-79l-16 0c-13 0-25-6-34-14l-37-36c-11-12-26-17-41-17z m-128 426c-26 0-48-21-48-47l0-233c0-26 22-47 48-47l16 0c21 0 42-9 57-23l36-36c11-11 28-11 38 0l36 36c15 14 36 23 57 23l16 0c26 0 48 21 48 47l0 233c0 26-22 47-48 47z m128-170c-36 0-66 29-66 65 0 37 30 66 66 66 36 0 66-29 66-66 0-36-30-65-66-65z m0 99c-19 0-34-15-34-34 0-18 15-33 34-33 19 0 34 15 34 33 0 19-15 34-34 34z m85-220c-8 0-16 7-16 16 0 29-31 53-69 53-38 0-69-24-69-53 0-9-8-16-16-16-9 0-16 7-16 16 0 47 45 85 101 85 56 0 101-38 101-85 0-9-7-16-16-16z"/>
<glyph glyph-name="star" unicode="&#73;" d="M377 28c-12 0-26 4-44 15l-64 37c-7 4-19 4-26 0l-64-37c-38-23-60-14-70-7-10 8-25 26-15 69l15 65c2 7-1 19-7 24l-53 53c-26 26-24 49-20 60 3 11 15 31 52 37l68 11c6 1 15 8 18 14l38 75c17 35 39 40 51 40 12 0 34-5 51-40l38-75c3-5 12-12 18-13l68-12c37-6 49-26 52-37 4-11 6-33-20-60l-53-53c-6-5-9-17-7-24l15-65c10-43-5-61-15-69-6-3-14-8-26-8z m-121 87c10 0 21-2 29-7l64-38c19-11 30-11 35-8 4 3 7 15 3 36l-15 65c-4 18 2 41 15 54l53 53c10 10 15 20 13 27-2 7-12 13-27 16l-68 11c-16 3-34 16-42 31l-37 75c-7 14-16 22-23 22-7 0-16-8-23-22l-37-75c-8-15-26-28-42-31l-68-11c-15-3-24-9-27-16-2-7 3-17 13-27l53-53c13-13 20-36 16-54l-16-65c-4-21-1-33 3-36 5-3 16-3 35 8l64 38c8 5 19 7 29 7z"/>
<glyph glyph-name="slider-horizontal" unicode="&#74;" d="M299 37l-86 0c-70 0-113 14-120 86-2 9-2 21-2 37l0 192c0 16 0 28 2 38 7 71 50 85 120 85l86 0c70 0 113-14 120-86 2-9 2-21 2-37l0-192c0-16 0-28-2-38-7-71-50-85-120-85z m-86 406c-70 0-84-15-89-57-1-9-1-19-1-34l0-192c0-15 0-25 1-33 5-43 19-58 89-58l86 0c70 0 84 15 89 57 1 9 1 19 1 34l0 192c0 15 0 25-1 33-5 43-19 58-89 58z m-170-363c-9 0-16 7-16 16l0 320c0 9 7 16 16 16 8 0 16-7 16-16l0-320c0-9-8-16-16-16z m426 11c-8 0-16 7-16 16l0 320c0 8 8 16 16 16 9 0 16-8 16-16l0-320c0-9-7-16-16-16z"/>
<glyph glyph-name="receipt-text" unicode="&#75;" d="M414 261l-73 0c-8 0-16 8-16 16l0 149c0 16 7 31 18 42 11 11 25 17 41 17l0 0c27 0 52-10 71-29 20-20 30-45 30-72l0-52c0-42-28-71-71-71z m-57 32l57 0c25 0 39 15 39 39l0 52c0 18-7 36-20 49-13 13-30 20-49 20 0 0 0 0 0 0-7 0-14-2-19-8-5-5-8-11-8-19z m-165-279c-10 0-19 4-26 11l-36 36c-2 2-5 2-7 0l-36-27c-12-8-27-10-39-3-13 6-21 19-21 33l0 320c0 64 37 101 101 101l256 0c9 0 16-7 16-16 0-8-7-16-16-16-15 0-26-12-26-26l0-363c0-14-8-27-21-33-13-7-28-5-39 3l-37 27c-2 2-5 2-7 0l-35-36c-8-7-17-11-27-11z m-66 81c10 0 19-4 27-12l35-35c1-1 3-2 4-2 1 0 3 1 4 2l36 36c13 13 34 14 48 3l37-27c2-2 4-1 5-1 1 1 3 2 3 5l0 363c0 9 3 18 7 26l-204 0c-47 0-69-22-69-69l0-320c0-3 2-4 3-5 1-1 3-1 5 1l37 27c6 5 14 8 22 8z m130 209l-128 0c-9 0-16 7-16 16 0 9 7 16 16 16l128 0c9 0 16-7 16-16 0-9-7-16-16-16z m-16-85l-96 0c-9 0-16 7-16 16 0 8 7 16 16 16l96 0c9 0 16-8 16-16 0-9-7-16-16-16z"/>
<glyph glyph-name="play-circle" unicode="&#76;" d="M255 27c-126 0-229 102-229 229 0 127 103 229 229 229 127 0 230-102 230-229 0-127-103-229-230-229z m0 426c-108 0-197-88-197-197 0-109 89-197 197-197 109 0 198 88 198 197 0 109-89 197-198 197z m-30-303c-9 0-18 2-26 6-18 11-29 32-29 59l0 72c0 27 10 48 29 59 18 10 41 9 65-5l62-36c24-13 37-33 37-54 0-21-13-40-37-54l-62-36c-13-8-27-11-39-11z m0 171c-4 0-7-1-10-3-8-5-13-16-13-31l0-72c0-15 5-26 13-31 8-5 20-3 33 5l62 35c13 8 21 18 21 27 0 9-8 19-21 26l-62 36c-8 5-16 8-23 8z"/>
<glyph glyph-name="video" unicode="&#78;" d="M275 67l-130 0c-75 0-102 53-102 103l0 172c0 74 28 103 102 103l130 0c74 0 102-29 102-103l0-172c0-74-28-103-102-103z m-130 346c-55 0-70-15-70-71l0-172c0-27 9-71 70-71l130 0c55 0 70 15 70 71l0 172c0 56-15 71-70 71z m298-287c-9 0-21 3-34 12l-57 40c-4 3-7 8-7 13l0 130c0 5 3 10 7 13l57 40c25 18 44 13 53 8 8-5 23-17 23-48l0-156c0-31-15-43-23-48-4-2-11-4-19-4z m-66 74l51-35c9-7 16-8 19-6 3 1 6 7 6 19l0 156c0 12-4 18-6 19-3 2-10 1-19-6l-51-35z m-132 61c-26 0-48 22-48 48 0 27 22 48 48 48 27 0 48-21 48-48 0-26-21-48-48-48z m0 64c-8 0-16-7-16-16 0-8 8-16 16-16 9 0 16 8 16 16 0 9-7 16-16 16z"/>
<glyph glyph-name="wallet" unicode="&#79;" d="M111 289c-4 0-8 2-11 5-5 4-6 11-4 17l40 95c1 2 1 3 2 4 31 73 72 90 143 63 4-1 7-5 9-9 2-4 2-8 0-12l-63-145c-2-6-8-10-14-10l-61 0c-12 0-24-2-35-7-2-1-4-1-6-1z m115 164c-26 0-42-17-59-56 0-1-1-1-1-2l-28-66c5 0 9 0 14 0l50 0 51 120c-10 3-19 4-27 4z m164-160c-1 0-3 0-5 1-8 2-16 3-25 3l-147 0c-6 0-11 3-14 7-3 5-3 11-1 16l62 143c3 8 12 13 20 10 3 0 5-1 8-3l50-21c30-12 49-25 62-40 3-3 5-6 7-10 2-3 4-7 6-12 0-1 1-4 2-7 6-20 3-45-10-77-2-6-8-10-15-10z m-153 36l123 0c7 0 14 0 20-1 6 18 7 32 4 44 0 2-1 3-1 4-1 3-2 5-3 7-2 2-3 4-5 6-9 11-25 21-49 31l-42 18z m102-302l-166 0c-6 0-12 0-17 1-75 5-118 48-123 123-1 5-1 11-1 16l0 42c0 48 29 91 73 111 15 6 31 9 47 9l208 0c12 0 24-2 35-5 50-15 85-62 85-115l0-42c0-4 0-9 0-13-5-83-53-127-141-127z m-187 270c-12 0-24-2-35-7-32-14-53-46-53-81l0-42c0-4 0-9 1-13 4-61 34-90 94-94 5-1 9-2 14-2l166 0c70 0 105 31 108 98 1 3 1 7 1 11l0 42c0 39-26 73-63 85-8 2-16 3-25 3z m-104-104c-9 0-16 7-16 16l0 63c0 67 47 125 113 138 6 1 12-2 16-6 3-4 4-11 2-16l-37-89c-2-4-5-7-9-9-32-14-53-46-53-81 0-9-7-16-16-16z m71 173c-27-15-47-42-53-73 9 9 20 18 33 24z m345-173c-9 0-16 7-16 16 0 39-26 73-62 85-5 1-8 4-10 8-2 4-2 9-1 13 11 25 13 43 9 57 0 2-1 3-1 3-3 7-1 14 4 19 4 4 12 5 18 2 46-24 75-72 75-124l0-63c0-9-7-16-16-16z m-53 125c13-6 25-15 35-25-4 21-14 40-29 55-1-9-3-19-6-30z"/>
<glyph glyph-name="arrow-down-1" unicode="&#80;" d="M256 154c-15 0-30 5-41 17l-139 139c-6 6-6 16 0 22 6 7 16 7 22 0l139-139c11-10 27-10 38 0l139 139c6 7 16 7 22 0 6-6 6-16 0-22l-139-139c-11-12-26-17-41-17z"/>
<glyph glyph-name="folder-open" unicode="&#82;" d="M390 27l-268 0c-73 0-77 40-80 72l-8 107c-2 20 4 41 17 58 16 19 38 29 62 29l286 0c23 0 46-10 61-28l4-5c11-16 16-35 14-55l-8-106c-3-32-7-72-80-72z m-277 234c-14 0-28-6-37-17l-1-2c-7-8-11-21-9-34l8-106c3-32 4-43 48-43l268 0c44 0 45 11 48 43l8 107c2 12-2 25-10 35l-3 2c-9 10-21 15-35 15z m324-10c-8 0-16 8-16 16l0 38c0 64-11 75-74 75l-55 0c-24 0-32 9-41 21l-28 36c-9 13-11 16-31 16l-27 0c-63 0-74-11-74-75l0-110c0-9-8-16-16-16-9 0-16 7-16 16l0 110c0 82 25 107 106 107l28 0c32 0 43-11 56-28l27-37c6-7 6-8 16-8l55 0c82 0 107-25 107-107l0-38c-1-8-8-16-17-16z m-126-118l-110 0c-9 0-16 8-16 16 0 9 7 16 16 16l110 0c9 0 16-7 16-16 0-8-7-16-16-16z"/>
<glyph glyph-name="profile-circle" unicode="&#81;" d="M259 223c-1 0-1 0-2 0-1 0-1 0-2 0-48 2-85 40-85 86 0 47 39 86 86 86 48 0 86-39 86-86 0-47-36-84-83-86 0 0 0 0 0 0z m-3 140c-30 0-54-24-54-54 0-29 23-53 52-54 1 1 3 1 5 0 28 2 51 25 51 54 0 30-24 54-54 54z m0-336c-57 0-112 21-155 60-3 3-5 8-5 13 3 26 19 49 45 67 64 42 167 42 230 0 26-18 42-41 45-67 0-5-1-10-5-13-43-39-98-60-155-60z m-126 78c35-30 80-46 126-46 46 0 91 16 126 46-4 13-14 25-29 35-52 35-141 35-194 0-15-10-25-22-29-35z m126-78c-127 0-229 102-229 229 0 127 102 229 229 229 127 0 229-102 229-229 0-127-102-229-229-229z m0 426c-109 0-197-88-197-197 0-109 88-197 197-197 109 0 197 88 197 197 0 109-88 197-197 197z"/>
<glyph glyph-name="message-text-1" unicode="&#84;" d="M341 27l-277 0c-20 0-37 17-37 37l0 277c0 95 49 144 144 144l170 0c95 0 144-49 144-144l0-170c0-95-49-144-144-144z m-170 426c-77 0-112-35-112-112l0-277c0-3 2-5 5-5l277 0c77 0 112 35 112 112l0 170c0 77-35 112-112 112z m192-160l-214 0c-8 0-16 8-16 16 0 9 8 16 16 16l214 0c8 0 16-7 16-16 0-8-8-16-16-16z m-64-106l-150 0c-8 0-16 7-16 16 0 8 8 16 16 16l150 0c8 0 16-8 16-16 0-9-8-16-16-16z"/>
<glyph glyph-name="icons8-twitterx" unicode="&#85;" d="M133 448c-38 0-69-31-69-69l0-246c0-38 31-69 69-69l246 0c38 0 69 31 69 69l0 246c0 38-31 69-69 69z m0-32l246 0c20 0 37-17 37-37l0-246c0-20-17-37-37-37l-246 0c-20 0-37 17-37 37l0 246c0 20 17 37 37 37z m15-53l82-118-83-96 22 0 71 82 57-82 68 0-87 126 75 88-21 0-64-74-52 74z m33-18l27 0 124-178-27 0z"/>
<glyph glyph-name="icons8-share" unicode="&#86;" d="M384 459c-41 0-75-34-75-75 0-6 2-12 4-18l-128-64c-14 17-34 29-57 29-41 0-75-34-75-75 0-41 34-75 75-75 23 0 43 12 57 29l128-64c-2-6-4-12-4-18 0-41 34-75 75-75 41 0 75 34 75 75 0 41-34 75-75 75-23 0-43-12-57-29l-128 64c2 6 4 12 4 18 0 6-2 12-4 18l128 64c14-17 34-29 57-29 41 0 75 34 75 75 0 41-34 75-75 75z m0-32c24 0 43-19 43-43 0-24-19-43-43-43-24 0-43 19-43 43 0 24 19 43 43 43z m-256-128c24 0 43-19 43-43 0-24-19-43-43-43-24 0-43 19-43 43 0 24 19 43 43 43z m256-128c24 0 43-19 43-43 0-24-19-43-43-43-24 0-43 19-43 43 0 24 19 43 43 43z"/>
<glyph glyph-name="icons8-linkedin" unicode="&#87;" d="M123 448c-33 0-59-26-59-59l0-266c0-33 26-59 59-59l266 0c33 0 59 26 59 59l0 266c0 33-26 59-59 59z m0-32l266 0c15 0 27-12 27-27l0-266c0-15-12-27-27-27l-266 0c-15 0-27 12-27 27l0 266c0 15 12 27 27 27z m42-43c-14 0-26-12-26-26 0-15 12-27 26-27 15 0 27 12 27 27 0 14-12 26-27 26z m-16-74c-6 0-10-5-10-11l0-139c0-6 4-10 10-10l32 0c6 0 11 4 11 10l0 139c0 6-5 11-11 11z m75 0c-6 0-11-5-11-11l0-139c0-6 5-10 11-10l32 0c6 0 11 4 11 10l0 80c0 15 12 27 26 27 15 0 27-12 27-27l0-80c0-6 5-10 11-10l32 0c6 0 10 4 10 10l0 86c0 35-28 64-64 64-16 0-31-7-42-17l0 6c0 6-5 11-11 11z"/>
<glyph glyph-name="icons8-instagram" unicode="&#88;" d="M176 459c-68 0-123-55-123-123l0-160c0-68 55-123 123-123l160 0c68 0 123 55 123 123l0 160c0 68-55 123-123 123z m0-32l160 0c50 0 91-41 91-91l0-160c0-50-41-91-91-91l-160 0c-50 0-91 41-91 91l0 160c0 50 41 91 91 91z m187-43c-12 0-22-10-22-21 0-12 10-22 22-22 11 0 21 10 21 22 0 11-10 21-21 21z m-107-21c-59 0-107-48-107-107 0-59 48-107 107-107 59 0 107 48 107 107 0 59-48 107-107 107z m0-32c41 0 75-34 75-75 0-41-34-75-75-75-41 0-75 34-75 75 0 41 34 75 75 75z"/>
<glyph glyph-name="quote-up-square" unicode="&#89;" d="M320 27l-128 0c-116 0-165 49-165 165l0 128c0 116 49 165 165 165l128 0c116 0 165-49 165-165l0-128c0-116-49-165-165-165z m-128 426c-98 0-133-35-133-133l0-128c0-98 35-133 133-133l128 0c98 0 133 35 133 133l0 128c0 98-35 133-133 133z m171-210l-58 0c-23 0-41 19-41 42l0 32c0 23 18 41 41 41l32 0c23 0 42-19 42-41l0-57c0-9-8-17-16-17z m-58 83c-6 0-9-5-9-9l0-32c0-4 2-10 9-10l42 0 0 41c0 6-5 10-10 10l-32 0z m13-172c-5 0-11 3-14 8-4 8-2 17 6 22 29 17 37 22 37 75 0 9 7 16 16 16 8 0 16-7 16-16 0-65-15-80-53-103-2-1-5-2-8-2z m-86 89l-57 0c-24 0-42 19-42 42l0 32c0 23 18 41 42 41l31 0c23 0 42-19 42-41l0-57c0-9-7-17-16-17z m-57 83c-7 0-10-5-10-9l0-32c0-4 3-10 10-10l41 0 0 41c0 6-4 10-9 10l-32 0z m12-172c-5 0-11 3-14 8-4 8-2 17 6 22 29 17 37 22 37 75 0 9 7 16 16 16 8 0 16-7 16-16 0-65-15-80-53-103-2-1-5-2-8-2z"/>
<glyph glyph-name="quote-down-square" unicode="&#90;" d="M320 27l-128 0c-116 0-165 49-165 165l0 128c0 116 49 165 165 165l128 0c116 0 165-49 165-165l0-128c0-116-49-165-165-165z m-128 426c-98 0-133-35-133-133l0-128c0-98 35-133 133-133l128 0c98 0 133 35 133 133l0 128c0 98-35 133-133 133z m15-299l-32 0c-23 0-42 19-42 41l0 57c0 9 8 16 16 16l58 0c23 0 41-18 41-41l0-32c0-23-18-41-41-41z m-42 83l0-41c0-6 5-10 10-10l32 0c6 0 9 5 9 10l0 31c0 5-2 10-9 10l-42 0z m-16 0c-8 0-16 7-16 16 0 65 15 80 53 103 7 4 17 2 22-6 4-7 2-17-6-22-29-17-37-22-37-75 0-9-7-16-16-16z m188-83l-32 0c-22 0-41 19-41 41l0 57c0 9 7 16 16 16l57 0c24 0 42-18 42-41l0-32c0-23-18-41-42-41z m-41 83l0-41c0-6 5-10 10-10l31 0c7 0 10 5 10 10l0 31c0 5-2 10-10 10l-41 0z m-16 0c-8 0-16 7-16 16 0 65 15 80 53 103 7 4 17 2 22-6 4-7 2-17-6-22-29-17-37-22-37-75 0-9-7-16-16-16z"/>
<glyph glyph-name="eye" unicode="&#104;" d="M256 164c-51 0-92 41-92 92 0 51 41 92 92 92 51 0 92-41 92-92 0-51-41-92-92-92z m0 152c-33 0-60-27-60-60 0-33 27-60 60-60 33 0 60 27 60 60 0 33-27 60-60 60z m0-252c-80 0-156 46-208 128-23 35-23 93 0 128 52 81 128 128 208 128 80 0 156-47 208-128 22-35 22-93 0-128-52-82-128-128-208-128z m0 352c-69 0-135-41-181-113-16-25-16-69 0-94 46-72 112-113 181-113 69 0 135 41 181 113 16 25 16 69 0 94-46 72-112 113-181 113z"/>
<glyph glyph-name="map-1" unicode="&#117;" d="M435 61c-4 0-9 2-12 5l-136 136c-6 6-6 16 0 23l165 165c4 4 11 5 16 4 6-2 10-7 11-12 4-18 6-39 6-62l0-128c0-59-12-99-39-126-3-3-7-4-11-5z m-114 152l113-112c13 21 19 50 19 91l0 128c0 9 0 17 0 25z m-187-181c-2 0-3 1-4 1-70 16-103 67-103 159l0 128c0 116 49 165 165 165l128 0c92 0 143-33 159-103 1-5 0-11-4-15l-330-330c-3-3-7-5-11-5z m58 421c-98 0-133-35-133-133l0-128c0-74 20-111 70-126l317 317c-15 50-52 70-126 70l-128 0z m128-426l-128 0c-23 0-44 2-62 6-6 1-10 5-12 11-1 5 0 11 4 16l165 165c7 6 17 6 23 0l136-136c3-3 5-8 5-12 0-4-2-8-5-11-27-27-67-39-126-39z m-153 32c8 0 16 0 25 0l128 0c41 0 70 6 91 19l-112 113z m28 169c-14 0-27 5-38 15-34 32-48 68-39 102 8 36 39 59 77 59 38 0 68-23 77-59 7-35-6-70-40-102-11-10-24-15-37-15z m-46 110c-7-29 12-55 30-72 9-8 22-8 31 0 17 17 37 43 30 72-5 26-28 35-45 35-18 0-40-9-46-35z m46-28c-12 0-21 9-21 21 0 12 9 21 21 21l0 0c12 0 22-9 22-21 0-12-10-21-22-21z"/>
<glyph glyph-name="location" unicode="&#77;" d="M256 210c-45 0-83 37-83 82 0 46 38 83 83 83 45 0 83-37 83-83 0-46-38-82-83-82z m0 133c-28 0-51-23-51-51 0-28 23-51 51-51 28 0 51 23 51 51 0 28-23 51-51 51z m0-317c-32 0-63 12-88 36-63 61-133 157-106 272 23 105 114 151 194 151 0 0 0 0 0 0 80 0 171-46 195-151 26-115-44-211-107-272-25-24-56-36-88-36z m0 427c-62 0-142-33-163-126-23-100 40-187 97-242 37-35 95-35 132 0 57 55 120 142 97 242-21 93-101 126-163 126z"/>
<glyph glyph-name="element-equal" unicode="&#83;" d="M422 272l-86 0c-43 0-64 21-64 64l0 86c0 43 21 63 64 63l86 0c43 0 63-21 63-63l0-86c0-43-21-64-63-64z m-86 181c-26 0-32-6-32-31l0-86c0-26 6-32 32-32l86 0c25 0 31 6 31 32l0 86c0 25-6 31-31 31z m-160-181l-86 0c-43 0-63 19-63 58l0 97c0 39 21 58 63 58l86 0c43 0 64-19 64-58l0-97c0-39-21-58-64-58z m-86 181c-28 0-31-8-31-26l0-97c0-18 3-26 31-26l86 0c29 0 32 8 32 26l0 97c0 18-3 26-32 26z m86-426l-86 0c-43 0-63 21-63 63l0 86c0 43 21 64 63 64l86 0c43 0 64-21 64-64l0-86c0-42-21-63-64-63z m-86 181c-25 0-31-6-31-32l0-86c0-25 6-31 31-31l86 0c26 0 32 6 32 31l0 86c0 26-6 32-32 32z m358-43l-128 0c-9 0-16 8-16 16 0 9 7 16 16 16l128 0c9 0 16-7 16-16 0-8-7-16-16-16z m0-85l-128 0c-9 0-16 7-16 16 0 9 7 16 16 16l128 0c9 0 16-7 16-16 0-9-7-16-16-16z"/>
<glyph glyph-name="3d-cube-scan" unicode="&#48;" d="M469 304c-8 0-16 7-16 16l0 43c0 55-35 90-90 90l-214 0c-55 0-90-35-90-90l0-43c0-9-8-16-16-16-9 0-16 7-16 16l0 43c0 73 49 122 122 122l214 0c73 0 122-49 122-122l0-43c0-9-7-16-16-16z m-106-277l-214 0c-73 0-122 49-122 122l0 43c0 9 7 16 16 16 8 0 16-7 16-16l0-43c0-55 35-90 90-90l214 0c55 0 90 35 90 90l0 43c0 9 8 16 16 16 9 0 16-7 16-16l0-43c0-73-49-122-122-122z m-107 206c-3 0-6 1-8 2l-113 65c-8 5-10 15-6 22 5 8 14 11 22 6l105-61 104 61c8 4 18 1 22-6 4-8 2-18-6-22l-112-65c-2-1-5-2-8-2z m0-116c-9 0-16 7-16 16l0 116c0 9 7 16 16 16 9 0 16-7 16-16l0-116c0-9-7-16-16-16z m0-5c-12 0-24 3-34 8l-69 38c-20 11-36 38-36 62l0 72c0 24 16 51 36 62l69 38c19 11 49 11 68 0l69-38c20-11 36-38 36-62l0-72c0-23-16-50-36-62l-69-38c-9-5-22-8-34-8z m-19 252l-68-38c-10-6-20-22-20-34l0-72c0-12 10-28 20-34l68-38c10-5 28-5 38 0l68 38c11 6 20 22 20 34l0 72c0 12-9 28-20 34l-68 38c-10 5-28 5-38 0z"/>
<glyph glyph-name="add-circle" unicode="&#49;" d="M256 27c-127 0-229 102-229 229 0 127 102 229 229 229 127 0 229-102 229-229 0-127-102-229-229-229z m0 426c-109 0-197-88-197-197 0-109 88-197 197-197 109 0 197 88 197 197 0 109-88 197-197 197z m85-213l-170 0c-9 0-16 7-16 16 0 9 7 16 16 16l170 0c9 0 16-7 16-16 0-9-7-16-16-16z m-85-85c-9 0-16 7-16 16l0 170c0 9 7 16 16 16 9 0 16-7 16-16l0-170c0-9-7-16-16-16z"/>
<glyph glyph-name="firstline" unicode="&#50;" d="M448 400l-149 0c-9 0-16 7-16 16 0 9 7 16 16 16l149 0c9 0 16-7 16-16 0-9-7-16-16-16z m0-107l-149 0c-9 0-16 8-16 16 0 9 7 16 16 16l149 0c9 0 16-7 16-16 0-8-7-16-16-16z m0-106l-384 0c-9 0-16 7-16 16 0 8 7 16 16 16l384 0c9 0 16-8 16-16 0-9-7-16-16-16z m0-107l-384 0c-9 0-16 7-16 16 0 9 7 16 16 16l384 0c9 0 16-7 16-16 0-9-7-16-16-16z m-279 203l-61 0c-32 0-49 16-49 49l0 61c0 33 16 50 49 50l61 0c33 0 50-17 50-50l0-61c0-33-17-49-50-49z m-61 128c-15 0-17-3-17-18l0-61c0-15 2-18 17-18l61 0c15 0 18 3 18 18l0 61c0 15-3 18-18 18z"/>
<glyph glyph-name="moneys" unicode="&#51;" d="M318 123l-188 0c-11 0-21 1-31 3-5 1-11 3-17 5-28 11-62 37-62 102l0 110c0 70 40 110 110 110l188 0c59 0 96-28 107-79 2-10 3-20 3-31l0-110c0-70-40-110-110-110z m-188 298c-52 0-78-26-78-78l0-110c0-38 14-62 41-72 5-2 9-3 13-3 8-2 16-3 24-3l188 0c52 0 78 25 78 78l0 110c0 9-1 17-2 24-8 36-32 54-76 54z m252-362l-188 0c-18 0-34 3-48 8-31 12-52 37-59 72-1 5 1 11 5 15 3 3 9 5 14 4 7-2 15-3 24-3l188 0c52 0 78 26 78 78l0 110c0 9-1 17-3 24-1 5 1 11 5 15 4 3 9 5 14 4 51-11 80-49 80-107l0-110c0-70-40-110-110-110z m-256 64c7-12 17-21 31-26 11-4 23-6 37-6l188 0c52 0 78 26 78 78l0 110c0 34-11 56-32 68 0-1 0-3 0-4l0-110c0-70-40-110-110-110l-188 0c-1 0-2 0-4 0z m98 93c-40 0-72 32-72 72 0 40 32 72 72 72 40 0 72-32 72-72 0-40-32-72-72-72z m0 112c-22 0-40-18-40-40 0-22 18-40 40-40 22 0 40 18 40 40 0 22-18 40-40 40z m-122-103c-9 0-16 7-16 16l0 94c0 9 7 16 16 16 9 0 16-7 16-16l0-94c0-9-7-16-16-16z m244 0c-9 0-16 7-16 16l0 94c0 9 7 16 16 16 9 0 16-7 16-16l0-94c0-9-7-16-16-16z"/>
<glyph glyph-name="note-2" unicode="&#52;" d="M337 82c-5 0-11 0-17 0-11 1-24 3-37 7l-36 8c-98 23-130 75-107 174l21 89c4 20 10 37 17 50 36 76 107 69 156 57l36-8c50-12 82-30 99-59 18-28 21-64 9-114l-21-89c-18-79-57-115-120-115z m-57 361c-36 0-58-15-74-47-5-11-10-25-14-43l-21-90c-19-80 3-116 83-135l36-8c12-3 23-5 33-6 58-5 86 20 103 90l20 89c10 41 9 70-4 91-13 20-38 34-79 44l-36 8c-18 5-33 7-47 7z m-102-406c-55 0-90 33-113 102l-27 85c-30 94-3 147 90 177l34 11c11 3 20 5 27 7 6 1 12-1 16-6 3-5 4-12 1-17-5-11-10-26-14-44l-21-89c-19-81 3-116 84-135l36-9c11-2 22-4 32-5 7-1 12-5 14-12 2-6-1-13-6-17-14-10-32-18-55-25l-33-11c-25-8-46-12-65-12z m-12 342l-28-9c-76-24-94-60-69-136l27-85c25-76 61-94 137-70l33 11c2 1 3 1 4 2l-23 5c-98 23-130 75-107 173l21 90c1 7 3 13 5 19z m207-91c-1 0-2 0-4 0l-103 26c-9 3-14 11-12 20 2 8 11 13 19 11l104-26c8-2 14-11 11-19-1-7-8-12-15-12z m-62-72c-2 0-3 0-4 0l-62 16c-9 2-14 11-12 19 2 9 11 14 19 12l62-16c9-2 14-11 12-19-2-8-8-12-15-12z"/>
<glyph glyph-name="back-square" unicode="&#53;" d="M320 27l-128 0c-116 0-165 49-165 165l0 128c0 116 49 165 165 165l128 0c116 0 165-49 165-165l0-128c0-116-49-165-165-165z m-128 426c-98 0-133-35-133-133l0-128c0-98 35-133 133-133l128 0c98 0 133 35 133 133l0 128c0 98-35 133-133 133z m105-285l-105 0c-9 0-16 7-16 16 0 9 7 16 16 16l105 0c27 0 50 22 50 50 0 27-23 49-50 49l-144 0c-9 0-16 8-16 16 0 9 7 16 16 16l144 0c45 0 82-36 82-81 0-45-37-82-82-82z m-114 98c-4 0-8 2-11 5l-34 33c-6 7-6 17 0 23l34 34c6 6 16 6 22 0 6-7 6-17 0-23l-22-22 22-22c6-7 6-17 0-23-3-3-7-5-11-5z"/>
<glyph glyph-name="dribbble" unicode="&#54;" d="M147 250c-9 0-19 0-28 1l-67 6c-9 1-16 9-15 18 1 9 9 15 18 14l67-6c105-9 207 44 259 135 4 8 14 10 22 6 7-5 10-14 6-22-54-94-155-152-262-152z m-30-167c-2 0-5 0-8 2-7 4-10 14-6 22 59 102 172 161 290 150l67-6c9-1 16-8 15-17-1-9-9-16-18-15l-67 6c-105 10-207-43-259-134-3-5-8-8-14-8z m139-56c-127 0-229 102-229 229 0 127 102 229 229 229 127 0 229-102 229-229 0-127-102-229-229-229z m0 426c-109 0-197-88-197-197 0-109 88-197 197-197 109 0 197 88 197 197 0 109-88 197-197 197z m95-404c-7 0-13 5-15 12l-26 107c-16 67-48 131-92 186l-68 84c-5 7-4 17 3 22 7 6 17 5 22-2l68-84c46-58 80-127 98-199l26-106c2-9-3-17-12-19-1-1-2-1-4-1z"/>
<glyph glyph-name="message-edit" unicode="&#55;" d="M341 27l-277 0c-20 0-37 17-37 37l0 277c0 95 49 144 144 144l170 0c95 0 144-49 144-144l0-170c0-95-49-144-144-144z m-170 426c-77 0-112-35-112-112l0-277c0-3 2-5 5-5l277 0c77 0 112 35 112 112l0 170c0 77-35 112-112 112z m-1-320c-10 0-20 4-26 11-9 8-12 19-10 32l6 42c1 9 7 21 13 27l111 111c38 38 71 21 92 0 16-16 24-34 22-51-1-14-9-27-22-41l-111-111c-6-6-18-12-27-13l-42-6c-2 0-4-1-6-1z m140 214c-8 0-15-5-23-13l-111-111c-1-2-4-7-4-9l-6-43c-1-2 0-4 0-5 1 0 3-1 5 0l43 6c2 0 7 3 9 4l111 111c8 8 12 15 13 21 0 8-4 16-13 26-10 9-17 13-24 13z m19-103c-2 0-3 0-4 0-39 11-70 42-81 81-2 8 3 17 11 19 9 3 18-2 20-11 8-28 30-50 58-58 9-2 14-11 11-20-2-7-8-11-15-11z"/>
<glyph glyph-name="award" unicode="&#56;" d="M256 27c-13 0-25 3-36 8l-100 59c-42 28-45 33-45 77l0 106c0 44 3 49 44 77l102 59c20 11 50 11 71 0l101-59c41-28 44-33 44-77l0-106c0-44-3-49-44-77l-102-59c-10-6-22-8-35-8z m0 362c-7 0-14-1-20-4l-100-58c-29-20-29-20-29-50l0-106c0-30 0-30 30-50l100-58c10-6 28-6 39 0l101 58c28 20 28 20 28 50l0 106c0 30 0 30-29 50l-101 58c-4 3-12 4-19 4z m117-56c-8 0-16 7-16 16l0 56c0 34-14 48-48 48l-106 0c-34 0-48-14-48-48l0-54c0-9-8-16-16-16-9 0-16 7-16 16l0 54c0 52 28 80 80 80l106 0c52 0 80-28 80-80l0-56c0-9-7-16-16-16z m-82-197c-5 0-9 1-14 3l-21 8-21-9c-11-4-23-3-31 3-9 6-13 17-13 29l2 23-15 17c-7 9-10 21-7 31 4 10 12 18 24 21l22 5 12 19c13 21 41 21 54 0l12-19 22-5c12-3 20-11 24-21 3-10 0-22-7-31l-15-17 2-23c0-12-4-22-13-29-5-3-11-5-17-5z m-88 94l14-17c5-6 8-15 8-22l-2-23 21 9c7 2 17 2 24 0l21-9-2 23c0 7 3 16 8 22l14 17-22 6c-7 2-15 7-19 14l-12 18-12-18c-4-7-12-12-19-14z"/>
<glyph glyph-name="people" unicode="&#57;" d="M384 343c-1 0-1 0-2 0l-1 0c-40 1-70 33-70 71 0 39 32 71 71 71 39 0 71-32 71-71 0-39-30-70-69-71 0 0 0 0 0 0z m-2 110c-22 0-39-17-39-39 0-21 16-38 37-39 1 0 2 0 4 0 21 1 37 18 37 39 0 22-17 39-39 39z m2-267c-8 0-16 1-25 2-9 2-14 10-13 19 2 8 10 14 19 13 26-5 54 0 72 13 10 6 16 14 16 23 0 8-6 16-16 23-18 12-46 17-73 12-9-1-17 5-18 13-2 9 4 17 13 19 34 6 70 0 96-18 19-12 30-30 30-49 0-19-11-37-30-50-19-13-45-20-71-20z m-257 157c0 0 0 0 0 0-38 2-69 33-69 71 0 39 32 71 71 71 39 0 71-32 71-71 0-38-30-69-68-71l-5 16 2-16c-1 0-1 0-2 0z m3 32c1 0 2 0 3 0 19 1 36 18 36 39 0 22-18 39-39 39-22 0-39-17-39-39 0-21 16-38 37-39 0 0 1 0 2 0z m-3-189c-26 0-51 7-71 20-18 12-29 31-29 50 0 19 11 37 29 49 26 18 62 24 97 18 8-2 14-10 13-19-2-8-10-14-19-13-26 5-54 0-73-12-10-7-15-15-15-23 0-9 5-17 15-23 19-13 46-18 73-13 8 1 17-5 18-13 2-9-4-17-13-19-8-1-17-2-25-2z m129-2c-1 0-1 0-2 0l-1 0c-40 1-70 32-70 71 0 39 32 71 71 71 39 0 71-32 71-71 0-39-30-70-69-71 0 0 0 0 0 0z m-2 110c-22 0-39-18-39-39 0-21 16-38 37-39 1 0 2 0 4 0 21 1 37 18 37 39 0 21-17 39-39 39z m2-268c-26 0-51 7-71 21-19 12-30 30-30 49 0 19 11 38 30 50 40 27 102 27 142 0 19-12 30-30 30-50 0-19-11-37-30-49-20-14-45-21-71-21z m-53 93c-10-6-16-15-16-23 0-8 6-16 16-23 28-19 77-19 106 0 10 7 16 15 16 23 0 9-6 17-16 23-28 20-77 19-106 0z"/>
<glyph glyph-name="airplane-square" unicode="&#33;" d="M308 89c-4 0-9 1-14 3-1 1-2 2-3 2l-35 31-35-31c-1 0-3-1-4-2-8-4-17-4-26-1-8 4-15 11-18 20l-6 20c-4 11-1 24 7 33l36 35-1 31-64-28c-10-4-21-4-30 2-8 5-13 15-13 27l0 19c0 17 11 35 27 41l80 35 0 41c0 21 14 43 33 52 9 5 20 5 29 0 18-9 32-32 32-52l0-41 81-35c15-6 27-24 27-41l0-19c0-12-5-22-14-28-9-5-19-6-30-1l-64 27 0-31 35-35c8-8 11-21 7-32l-7-20c-3-9-9-16-18-20-3-1-7-2-12-2z m-52 67c7 0 14-2 20-6l33-29 6 20-35 35c-5 5-9 14-9 22l0 39c0 10 4 18 11 23 7 5 17 6 26 2l71-30 0 18c0 4-4 10-8 12l-84 36c-9 4-16 14-16 25l0 44c0 8-7 20-15 24-7-4-15-16-15-24l0-44c0-10-6-21-16-25l-84-36c-3-2-7-8-7-12l0-18 70 30c9 4 18 3 26-2 7-5 11-13 11-23l0-39c0-8-3-17-9-22l-36-36 7-18 33 27c5 5 13 7 20 7z m44 172l0-1c0 1 0 1 0 1z m20-301l-128 0c-116 0-165 49-165 165l0 128c0 116 49 165 165 165l128 0c116 0 165-49 165-165l0-128c0-116-49-165-165-165z m-128 426c-98 0-133-35-133-133l0-128c0-98 35-133 133-133l128 0c98 0 133 35 133 133l0 128c0 98-35 133-133 133z"/>
<glyph glyph-name="global" unicode="&#34;" d="M256 27c-127 0-229 102-229 229 0 127 102 229 229 229 127 0 229-102 229-229 0-127-102-229-229-229z m0 426c-109 0-197-88-197-197 0-109 88-197 197-197 109 0 197 88 197 197 0 109-88 197-197 197z m-64-405l-21 0c-9 0-16 7-16 16 0 9 6 16 15 16-33 114-33 238 0 352-9 0-15 7-15 16 0 9 7 16 16 16l21 0c5 0 10-3 13-7 3-4 4-9 2-14-40-121-40-253 0-374 2-5 1-10-2-15-3-3-8-6-13-6z m128 0c-2 0-3 0-5 1-8 3-13 12-10 20 40 121 40 253 0 374-3 8 2 18 10 20 8 3 17-1 20-10 43-127 43-267 0-394-2-7-8-11-15-11z m-64 97c-60 0-119 8-176 25 0-8-7-15-16-15-9 0-16 7-16 16l0 21c0 5 3 10 7 13 4 3 9 4 14 2 121-40 254-40 374 0 5 2 10 1 15-2 4-3 6-8 6-13l0-21c0-9-7-16-16-16-9 0-16 6-16 15-57-17-116-25-176-25z m192 159c-2 0-3 0-5 1-121 40-254 40-374 0-9-3-18 2-20 10-3 8 2 17 10 20 127 43 267 43 394 0 8-3 13-12 10-20-2-7-8-11-15-11z"/>
<glyph glyph-name="arrow-square-left" unicode="&#35;" d="M320 27l-128 0c-116 0-165 49-165 165l0 128c0 116 49 165 165 165l128 0c116 0 165-49 165-165l0-128c0-116-49-165-165-165z m-128 426c-98 0-133-35-133-133l0-128c0-98 35-133 133-133l128 0c98 0 133 35 133 133l0 128c0 98-35 133-133 133z m91-288c-4 0-8 1-11 4l-76 76c-6 6-6 16 0 22l76 76c6 6 16 6 22 0 6-7 6-17 0-23l-64-64 64-64c6-6 6-16 0-23-3-3-7-4-11-4z"/>
<glyph glyph-name="arrow-square-right" unicode="&#36;" d="M320 27l-128 0c-116 0-165 49-165 165l0 128c0 116 49 165 165 165l128 0c116 0 165-49 165-165l0-128c0-116-49-165-165-165z m-128 426c-98 0-133-35-133-133l0-128c0-98 35-133 133-133l128 0c98 0 133 35 133 133l0 128c0 98-35 133-133 133z m37-288c-4 0-8 1-11 4-6 7-6 17 0 23l64 64-64 64c-6 6-6 16 0 23 6 6 16 6 22 0l76-76c6-6 6-16 0-22l-76-76c-3-3-7-4-11-4z"/>
<glyph glyph-name="24-support" unicode="&#37;" d="M256 27c-15 0-30 5-41 17l-37 36c-9 9-21 14-34 14l-16 0c-44 0-80 35-80 79l0 233c0 43 36 79 80 79l256 0c44 0 80-36 80-79l0-233c0-44-36-79-80-79l-16 0c-13 0-25-5-34-14l-37-36c-11-12-26-17-41-17z m-128 426c-26 0-48-21-48-47l0-233c0-26 22-47 48-47l16 0c22 0 42-8 57-23l36-36c11-11 28-11 38 0l36 36c16 15 36 23 57 23l16 0c26 0 48 21 48 47l0 233c0 26-22 47-48 47z m93-251l-57 0c-9 0-18 5-23 13-6 7-7 16-4 24 7 23 25 36 42 47 17 11 26 18 26 31 0 11-9 20-20 20-11 0-20-9-20-20 0-9-7-16-16-16-9 0-16 7-16 16 0 28 23 52 52 52 29 0 52-23 52-52 0-30-22-46-41-58-11-8-21-15-27-25l52 0c9 0 16-7 16-16 0-8-7-16-16-16z m121 0c-9 0-16 8-16 16l0 15-42 0c0 0 0 0 0 0-10 0-20 6-25 15-6 9-6 20 0 29 14 25 31 53 46 78 7 11 20 16 32 13 13-4 21-15 21-28l0-75 5 0c8 0 16-7 16-16 0-9-8-16-16-16l-5 0 0-15c0-8-7-16-16-16z m-16 126c-12-21-25-43-37-63l37 0z"/>
<glyph glyph-name="card-pos" unicode="&#38;" d="M84 157c-4 0-8 2-11 5-7 6-7 16 0 23l254 254c7 7 17 7 23 0 6-6 6-16 0-22l-255-255c-3-3-7-5-11-5z m153-51c-4 0-8 2-12 5-6 6-6 16 0 22l26 26c6 6 17 6 23 0 6-6 6-16 0-23l-26-25c-3-3-7-5-11-5z m57 57c-4 0-8 2-11 5-6 6-6 17 0 23l51 51c6 6 16 6 22 0 7-6 7-17 0-23l-50-51c-3-3-8-5-12-5z m-57-136c-21 0-42 12-67 38l-105 105c-51 51-51 83 0 135l142 142c52 51 84 51 135 0l105-105c51-51 51-83-1-135l-141-141c-26-26-47-39-68-39z m38 426c-11 0-25-9-45-29l-142-142c-20-20-29-34-29-45 0-11 8-24 28-45l105-105c20-20 34-28 45-28 0 0 0 0 0 0 11 0 25 9 45 29l142 142c20 20 29 34 29 45 0 11-8 25-28 45l-105 105c-20 20-34 28-45 28z m194-426l-426 0c-9 0-16 7-16 16 0 8 7 16 16 16l426 0c9 0 16-8 16-16 0-9-7-16-16-16z"/>
<glyph glyph-name="arrow-circle-up" unicode="&#39;" d="M256 27c-127 0-229 102-229 229 0 127 102 229 229 229 127 0 229-102 229-229 0-127-102-229-229-229z m0 426c-109 0-197-88-197-197 0-109 88-197 197-197 109 0 197 88 197 197 0 109-88 197-197 197z m75-240c-4 0-8 2-11 5l-64 64-64-64c-6-6-16-6-23 0-6 6-6 16 0 22l76 76c6 6 16 6 22 0l76-76c6-6 6-16 0-22-4-3-8-5-12-5z"/>
<glyph glyph-name="arrow-circle-down" unicode="&#40;" d="M256 27c-127 0-229 102-229 229 0 127 102 229 229 229 127 0 229-102 229-229 0-127-102-229-229-229z m0 426c-109 0-197-88-197-197 0-109 88-197 197-197 109 0 197 88 197 197 0 109-88 197-197 197z m0-261c-4 0-8 1-11 4l-76 76c-6 6-6 16 0 22 7 7 17 7 23 0l64-64 64 64c6 7 16 7 23 0 6-6 6-16 0-22l-76-76c-3-3-7-4-11-4z"/>
<glyph glyph-name="more-circle-1" unicode="&#41;" d="M256 27c-127 0-229 102-229 229 0 127 102 229 229 229 127 0 229-102 229-229 0-127-102-229-229-229z m0 426c-109 0-197-88-197-197 0-109 88-197 197-197 109 0 197 88 197 197 0 109-88 197-197 197z m0-218c-12 0-21 9-21 21 0 12 9 21 21 21 12 0 21-9 21-21 0-12-9-21-21-21z m85 0c-12 0-21 9-21 21 0 12 10 21 21 21 12 0 22-9 22-21 0-12-10-21-22-21z m-170 0c-12 0-22 9-22 21 0 12 10 21 22 21 11 0 21-9 21-21 0-12-9-21-21-21z"/>
<glyph glyph-name="shield-tick" unicode="&#42;" d="M256 26c-23 0-46 7-64 21l-92 68c-25 18-43 56-43 86l0 159c0 33 24 68 55 79l106 40c21 8 54 8 76 0l106-40c31-11 55-46 55-79l0-158c0-31-19-68-43-87l-92-68c-18-14-41-21-64-21z m-27 423l-106-40c-18-6-34-30-34-49l0-159c0-20 14-48 30-60l92-69c24-18 66-18 90 0l92 69c16 12 30 40 30 60l0 159c0 19-16 43-34 50l-106 39c-15 6-39 6-54 0z m-2-241c-4 0-8 2-11 5l-34 34c-6 7-6 17 0 23 6 6 16 6 22 0l23-23 81 80c6 7 16 7 22 0 7-6 7-16 0-22l-91-92c-4-3-8-5-12-5z"/>
<glyph glyph-name="category-2" unicode="&#43;" d="M405 283l-42 0c-52 0-80 28-80 80l0 42c0 52 28 80 80 80l42 0c52 0 80-28 80-80l0-42c0-52-28-80-80-80z m-42 170c-34 0-48-14-48-48l0-42c0-34 14-48 48-48l42 0c34 0 48 14 48 48l0 42c0 34-14 48-48 48z m-214-426l-42 0c-52 0-80 28-80 80l0 42c0 52 28 80 80 80l42 0c52 0 80-28 80-80l0-42c0-52-28-80-80-80z m-42 170c-34 0-48-14-48-48l0-42c0-34 14-48 48-48l42 0c34 0 48 14 48 48l0 42c0 34-14 48-48 48z m21 86c-56 0-101 45-101 101 0 56 45 101 101 101 56 0 101-45 101-101 0-56-45-101-101-101z m0 170c-38 0-69-31-69-69 0-38 31-69 69-69 38 0 69 31 69 69 0 38-31 69-69 69z m256-426c-56 0-101 45-101 101 0 56 45 101 101 101 56 0 101-45 101-101 0-56-45-101-101-101z m0 170c-38 0-69-31-69-69 0-38 31-69 69-69 38 0 69 31 69 69 0 38-31 69-69 69z"/>
</font>
</defs>
</svg>
