<?xml version="1.0" standalone="no"?>
<!DOCTYPE svg PUBLIC "-//W3C//DTD SVG 1.1//EN" "http://www.w3.org/Graphics/SVG/1.1/DTD/svg11.dtd" >
<svg xmlns="http://www.w3.org/2000/svg">
<metadata>Generated by IcoMoon</metadata>
<defs>
<font id="icomoon" horiz-adv-x="1024">
<font-face units-per-em="1024" ascent="960" descent="-64" />
<missing-glyph horiz-adv-x="1024" />
<glyph unicode="&#x20;" horiz-adv-x="512" d="" />
<glyph unicode="&#xe900;" glyph-name="bed" horiz-adv-x="1575" d="M459.488 356.096c108.965 0 196.923 87.959 196.923 196.923s-87.958 196.923-196.923 196.923c-108.964 0-196.923-87.958-196.923-196.923s87.959-196.923 196.923-196.923zM459.488 618.661c36.103 0 65.642-29.538 65.642-65.642s-29.538-65.641-65.642-65.641c-36.102 0-65.641 29.538-65.641 65.641s29.538 65.642 65.641 65.642zM1247.177 815.584h-525.125v-525.128h-525.128v656.41h-131.282v-984.612h131.282v196.923h1181.538v-196.923h131.285v590.765c0 145.067-117.5 262.565-262.569 262.565zM1378.462 290.455h-525.131v393.846h393.846c72.208 0 131.285-59.077 131.285-131.282v-262.564z" />
<glyph unicode="&#xe901;" glyph-name="take-off" horiz-adv-x="1195" d="M1052.456 49.778h-967.11c-31.289 0-56.889-25.6-56.889-56.889s25.6-56.889 56.889-56.889h967.11c31.289 0 56.889 25.6 56.889 56.889s-25.6 56.889-56.889 56.889zM1141.771 582.258c-12.516 45.511-59.164 72.249-104.676 60.302l-302.080-80.782-367.501 342.471c-7.603 7.207-16.953 12.308-27.128 14.802s-20.824 2.294-30.899-0.58c-38.684-10.809-56.889-55.182-36.978-89.884l195.698-339.058-282.738-75.662-89.316 70.542c-14.222 10.809-32.427 14.791-50.062 10.24l-18.773-5.12c-18.204-4.551-26.738-25.6-17.067-41.529l106.951-184.889c13.084-22.187 39.253-32.996 63.716-26.738l899.981 241.209c45.511 12.516 72.818 59.164 60.871 104.676z" />
<glyph unicode="&#xe902;" glyph-name="location" d="M200.962 829.312c83.737 83.678 197.308 130.688 315.729 130.688s231.991-47.010 315.73-130.688c83.733-83.679 130.777-197.171 130.777-315.51s-47.044-231.834-130.777-315.513l-60.868-60.157c-44.869-43.966-103.075-100.539-174.661-169.719-21.516-20.793-50.274-32.413-80.201-32.413s-58.686 11.619-80.201 32.413l-179.017 174.020c-22.512 22.088-41.332 40.689-56.51 55.856-41.464 41.436-74.355 90.624-96.796 144.757-22.44 54.137-33.99 112.159-33.99 170.756s11.55 116.619 33.99 170.754c22.441 54.135 55.331 103.324 96.796 144.756zM778.011 774.993c-69.319 69.259-163.332 108.162-261.356 108.152s-192.030-38.931-261.336-108.204c-69.307-69.272-108.237-163.22-108.228-261.177s38.959-191.898 108.279-261.156l76.202-75.228c52.637-51.393 105.421-102.635 158.352-153.726 7.172-6.939 16.762-10.812 26.742-10.812s19.57 3.873 26.743 10.812l174.042 169.105c24.1 23.624 44.255 43.556 60.512 59.85 69.301 69.259 108.237 163.195 108.237 261.142s-38.936 191.88-108.237 261.14l0.048 0.102zM516.692 653.493c20.216 0 40.234-3.979 58.911-11.71s35.647-19.062 49.942-33.347c14.295-14.285 25.634-31.243 33.37-49.907 7.739-18.664 11.721-38.668 11.721-58.87s-3.982-40.206-11.721-58.87c-7.737-18.664-19.075-35.623-33.37-49.907s-31.265-25.616-49.942-33.348c-18.677-7.728-38.695-11.71-58.911-11.71-40.335 0.735-78.768 17.265-107.033 46.029s-44.099 67.467-44.099 107.78c0 40.313 15.835 79.015 44.099 107.78s66.698 45.293 107.033 46.029v0.051zM516.692 576.627c-10.115 0-20.131-1.991-29.476-5.859s-17.836-9.538-24.987-16.685c-7.152-7.148-12.826-15.632-16.697-24.971s-5.863-19.347-5.863-29.455c0-10.107 1.992-20.116 5.863-29.454s9.544-17.823 16.697-24.971c7.152-7.147 15.643-12.816 24.987-16.685s19.361-5.859 29.476-5.859c20.42 0 40.005 8.106 54.444 22.536s22.552 34 22.552 54.407c0 20.407-8.112 39.977-22.552 54.407s-34.024 22.536-54.444 22.536v0.052z" />
<glyph unicode="&#xe903;" glyph-name="minus" d="M0 320h1024v256h-1024v-256z" />
<glyph unicode="&#xe904;" glyph-name="people" d="M729.6 396.8c64-42.667 106.667-102.4 106.667-179.2v-140.8h187.733v140.8c0 98.133-162.133 157.867-294.4 179.2zM563.2 635.733c0-103.682-84.051-187.733-187.733-187.733s-187.733 84.051-187.733 187.733c0 103.682 84.051 187.733 187.733 187.733s187.733-84.051 187.733-187.733zM652.8 448c102.4 0 187.733 85.333 187.733 187.733s-85.333 187.733-187.733 187.733c-21.333 0-42.667-4.267-64-12.8 38.4-46.933 64-110.933 64-174.933s-21.333-128-64-174.933c21.333-8.533 42.667-12.8 64-12.8zM375.467 401.067c-123.733 0-371.2-64-371.2-187.733v-140.8h746.667v140.8c-4.267 123.733-251.733 187.733-375.467 187.733z" />
<glyph unicode="&#xe905;" glyph-name="phone1" d="M941.833 287.861c-62.694 0-124.249 9.806-182.582 29.083-28.584 9.749-63.723 0.805-81.168-17.112l-115.139-86.918c-133.528 71.277-215.779 153.502-286.083 286.027l84.36 112.138c21.918 21.888 29.779 53.862 20.361 83.861-19.36 58.64-29.195 120.168-29.195 182.888 0.003 45.309-36.859 82.171-82.165 82.171h-188.054c-45.307 0-82.168-36.861-82.168-82.168 0-519.333 422.502-941.832 941.833-941.832 45.312 0 82.167 36.864 82.167 82.167v187.529c0 45.304-36.864 82.165-82.167 82.165z" />
<glyph unicode="&#xe906;" glyph-name="plus" d="M398.222 334.222v-341.333h227.556v341.333h341.333v227.556h-341.333v341.333h-227.556v-341.333h-341.333v-227.556h341.333z" />
<glyph unicode="&#xe907;" glyph-name="profile-fill" d="M512.027 448.003c125.725 0 227.556 102.116 227.556 227.556 0 125.724-101.831 227.555-227.556 227.555s-227.555-101.831-227.555-227.555c0-125.44 101.831-227.556 227.555-227.556zM512.027 334.226c-151.608 0-455.111-75.947-455.111-227.556v-113.778h910.226v113.778c0 151.609-303.506 227.556-455.115 227.556z" />
<glyph unicode="&#xe908;" glyph-name="stadium" d="M597.968 401.91h-175.743c-6.813 0-12.625-5.611-12.625-12.625v-50.298c0-6.813 5.611-12.625 12.625-12.625h175.743c6.813 0 12.625 5.611 12.625 12.625v50.298c-0.2 6.813-5.811 12.625-12.625 12.625zM99.194-52.377c-13.627 0-25.249 10.22-26.852 23.847l-65.929 604.18v0.2c0 0.601-0.2 1.403-0.2 2.204 0 56.11 93.984 94.384 279.346 114.223l54.106 4.809c47.292 3.607 97.19 5.811 143.079 6.613l54.106-0.401c45.89-0.601 95.987-2.805 143.079-6.613l54.106-4.609c185.162-19.438 279.145-57.713 279.346-113.822v-2.805l-65.528-603.98c-1.603-13.627-13.226-23.847-27.053-23.847h-821.605zM896.751 1.728l12.625 110.015h-191.374v-110.015h178.749zM795.153 1.728h-11.422zM532.24 1.728h-44.487zM236.261 1.728h-11.422zM597.968 1.929v110.015h-175.743v-110.015h175.743zM302.19 1.929v110.015h-191.374l12.625-110.015h178.749zM926.81 292.897l24.849 217.825c-68.133-30.259-180.953-44.687-267.523-51.501-1.403-0.401-2.605-0.601-3.807-0.601-0.601 0-1.002 0-1.603 0.2-38.074-2.805-78.553-4.809-117.029-5.811-0.601-0.2-1.403-0.2-2.204-0.2h-0.401c-17.234-0.401-33.666-0.601-48.895-0.601-14.629 0-30.259 0.401-46.691 0.802h-2.605c-0.802 0-1.603 0-2.204 0.2-38.074 0.802-78.553 2.805-117.029 5.811-0.401 0-1.002-0.2-1.403-0.2h-1.403l-1.202 0.401c-0.2 0-0.601 0-1.002 0.2-86.769 6.813-199.59 21.241-267.723 51.501l24.849-218.026h833.027zM480.939 506.715c9.418-0.2 19.037-0.2 29.057-0.2 9.819 0 19.638 0.2 28.856 0.2l12.625 44.286h-82.962l12.424-44.286zM352.488 512.125c24.648-1.804 48.294-3.206 71.941-4.008l-12.224 42.884h-95.186l35.469-38.876zM595.764 508.117c23.446 0.802 47.493 2.204 71.74 4.008l2.004 2.204 33.666 36.672h-95.186l-12.224-42.884zM117.029 550.801c35.068-11.022 86.369-22.243 154.502-30.86l-28.255 30.86h-126.247zM748.462 520.141c68.333 8.416 119.433 19.839 154.502 30.86h-126.247l-28.255-30.86zM903.364 605.107c-20.24 7.014-41.080 12.424-62.322 16.031l-14.629-16.031h76.95zM752.87 605.107l24.648 26.852c-47.894 6.813-95.587 11.623-142.278 14.027l-11.623-40.88h129.252zM566.907 605.107l12.424 43.285c-23.446 0.802-46.691 1.002-69.335 1.002-23.045 0-45.89-0.401-69.536-1.002l12.424-43.285h114.023zM396.575 605.107l-11.623 40.88c-46.691-2.405-94.384-7.214-142.478-14.027l24.648-26.852h129.453zM193.578 605.107l-14.629 16.031c-21.241-3.607-42.082-9.018-62.322-16.031h76.95zM226.843 675.444v46.090l118.031 39.277c11.623 3.807 17.835 16.432 14.027 27.854-2.204 6.813-7.615 11.823-14.027 14.027l-133.26 44.888c-11.623 3.807-24.448-2.405-28.055-14.027-0.802-2.405-1.002-4.609-1.002-7.014v-155.103zM493.163 664.222v100.997l184.56 61.52c11.623 3.807 17.835 16.432 14.027 28.055-2.204 6.813-7.615 11.823-14.027 14.027l-199.79 66.931c-11.623 3.807-24.448-2.405-28.055-14.027-0.802-2.405-1.002-4.609-1.002-7.014v-250.289zM787.338 671.436v50.298l118.031 39.277c11.623 3.807 17.835 16.432 14.027 27.854-2.204 6.813-7.615 11.823-14.027 14.027l-133.26 44.487c-11.623 3.807-24.448-2.405-28.055-14.027-0.802-2.405-1.002-4.609-1.002-7.014v-151.095z" />
<glyph unicode="&#xe909;" glyph-name="light-arrow" horiz-adv-x="585" d="M73-64c19.017 0 37.303 7.314 51.931 21.211l438.857 439.589c28.526 28.526 28.526 74.606 0 103.131l-436.663 438.126c-28.526 28.526-74.606 28.526-103.131 0s-28.526-74.606 0-103.131l384.731-386.194-387.657-388.389c-28.526-28.526-28.526-74.606 0-103.131 14.629-13.897 32.914-21.211 51.931-21.211z" />
<glyph unicode="&#xe90a;" glyph-name="mail" d="M921.6 857.6h-819.2c-56.32 0-101.888-46.080-101.888-102.4l-0.512-614.4c0-56.32 46.080-102.4 102.4-102.4h819.2c56.32 0 102.4 46.080 102.4 102.4v614.4c0 56.32-46.080 102.4-102.4 102.4zM921.6 140.8h-819.2v512l409.6-256 409.6 256v-512zM512 499.2l-409.6 256h819.2l-409.6-256z" />
<glyph unicode="&#xe90b;" glyph-name="facebook" d="M700.672 962.048l-132.864 0.256c-149.248 0-245.504-98.816-245.504-251.904v-116.224h-133.632c-11.52 0-20.992-9.472-20.992-20.992v-168.448c0-11.52 9.472-20.992 20.992-20.992h133.632v-424.704c0-11.52 9.216-20.992 20.992-20.992h174.080c11.52 0 20.992 9.472 20.992 20.992v424.704h156.16c11.52 0 20.992 9.216 20.992 20.992v168.448c0 5.632-2.304 10.752-6.144 14.848-3.84 3.84-9.216 6.144-14.848 6.144h-156.16v98.56c0 47.36 11.264 71.424 72.96 71.424h89.344c11.52 0 20.992 9.472 20.992 20.992v155.904c-0.256 11.52-9.728 20.992-20.992 20.992z" />
<glyph unicode="&#xe90c;" glyph-name="instagram" d="M512 867.84c136.704 0 152.832-0.512 206.848-3.072 49.92-2.304 77.056-10.496 94.976-17.664 22.272-8.192 42.24-21.248 58.88-38.4 16.896-16.64 30.208-36.608 38.4-58.88 6.912-17.92 15.36-45.056 17.664-94.976 2.56-54.016 3.072-70.144 3.072-206.848s-0.512-152.832-3.072-206.848c-2.304-49.92-10.496-77.056-17.664-94.976-17.152-44.544-52.48-79.872-97.28-97.28-17.92-6.912-45.056-15.36-94.976-17.664-54.016-2.56-70.144-3.072-206.848-3.072s-152.832 0.512-206.848 3.072c-49.92 2.304-77.056 10.496-94.976 17.664-22.272 8.192-42.24 21.248-58.88 38.4-16.896 16.64-30.208 36.608-38.4 58.88-6.912 17.92-15.36 45.056-17.664 94.976-2.56 54.016-3.072 70.144-3.072 206.848s0.512 152.832 3.072 206.848c2.304 49.92 10.496 77.056 17.664 95.232 8.192 22.272 21.248 42.24 38.4 58.88 16.64 16.896 36.608 30.208 58.88 38.4 17.92 6.912 45.056 15.36 94.976 17.664 54.016 2.304 70.144 2.816 206.848 2.816zM512 960c-139.008 0-156.416-0.512-211.2-3.072-54.272-2.56-91.648-11.264-124.16-23.808-34.048-12.8-65.024-33.024-90.624-59.136-26.112-25.6-46.336-56.576-59.136-90.624-12.544-32.512-21.248-69.888-23.808-124.16-2.56-54.784-3.072-72.192-3.072-211.2s0.512-156.416 3.072-211.2c2.56-54.528 11.264-91.648 23.808-124.16 12.8-34.048 33.024-65.024 59.136-90.624 25.6-26.112 56.576-46.080 90.624-59.136 32.512-12.544 69.888-21.248 124.16-23.808 54.784-2.56 72.192-3.072 211.2-3.072s156.416 0.512 211.2 3.072c54.528 2.56 91.648 11.264 124.16 23.808 68.864 26.624 123.136 80.896 149.76 149.76 12.544 32.512 21.248 69.888 23.808 124.16 2.56 54.784 3.072 72.192 3.072 211.2s-0.512 156.416-3.072 211.2c-2.56 54.528-11.264 91.648-23.808 124.16-12.8 34.048-33.024 65.024-59.136 90.624-25.6 26.112-56.576 46.336-90.624 59.136-32.512 12.544-69.888 21.248-124.16 23.808-54.784 2.56-72.192 3.072-211.2 3.072v0 0zM512 710.912c-145.152 0-262.912-117.76-262.912-262.912s117.76-262.912 262.912-262.912 262.912 117.76 262.912 262.912v0c0 145.152-117.76 262.912-262.912 262.912zM512 277.248c-94.208 0-170.752 76.288-170.752 170.752s76.288 170.752 170.752 170.752c94.208 0 170.752-76.288 170.752-170.752 0-94.208-76.544-170.752-170.752-170.752zM846.848 721.408c0-33.932-27.508-61.44-61.44-61.44s-61.44 27.508-61.44 61.44c0 33.932 27.508 61.44 61.44 61.44s61.44-27.508 61.44-61.44z" />
<glyph unicode="&#xe90d;" glyph-name="twitter" d="M1024 765.44c-38.144-16.64-78.592-27.904-121.088-33.28 43.52 25.856 76.8 66.816 92.416 115.968-40.448-24.32-85.248-41.216-133.12-50.688-38.4 40.96-93.44 66.56-153.344 66.56-116.224 0-209.664-94.208-209.664-209.92 0-16.64 1.536-32.768 4.864-47.872-174.592 8.448-328.96 92.16-432.64 219.648-18.176-31.488-28.928-67.584-28.928-106.24 0-72.704 37.376-137.216 93.184-174.592-33.536 0.768-66.56 10.496-94.72 25.856 0-0.768 0-1.536 0-2.304 0-101.888 72.704-186.88 168.192-206.336-17.152-4.608-35.584-6.912-55.040-6.912-13.568 0-26.88 0.768-39.68 3.584 27.136-83.2 104.448-144.128 196.096-146.176-71.424-55.808-162.048-89.6-260.352-89.6-17.152 0-33.792 0.768-50.176 2.816 92.928-59.904 203.264-94.208 322.048-94.208 386.304 0 597.504 320 597.504 597.248 0 9.216-0.256 18.176-0.768 27.136 41.728 29.952 76.544 66.816 105.216 109.312z" />
<glyph unicode="&#xe90e;" glyph-name="star-half" horiz-adv-x="546" d="M546.071 960v-842.138l-321.009-145.824 39.492 350.358-237.887 260.235 345.417 70.708 173.987 306.661z" />
<glyph unicode="&#xe90f;" glyph-name="star" horiz-adv-x="1092" d="M546.133 960l173.984-306.661 345.423-70.708-237.889-260.235 39.492-350.358-321.010 145.824-321.009-145.824 39.492 350.358-237.887 260.235 345.416 70.708 173.987 306.661z" />
<glyph unicode="&#xe910;" glyph-name="plane" horiz-adv-x="967" d="M938.667 258.367v94.817l-379.26 237.034v260.741c0 39.348-31.763 71.111-71.111 71.111s-71.111-31.763-71.111-71.111v-260.741l-379.259-237.034v-94.817l379.259 118.517v-260.739l-94.814-71.111v-71.111l165.926 47.406 165.927-47.406v71.111l-94.816 71.111v260.739l379.26-118.517z" />
<glyph unicode="&#xe911;" glyph-name="ticket" horiz-adv-x="1317" d="M1267.807 569.911v243.809c0 67.657-54.857 121.905-121.9 121.905h-975.242c-67.047 0-121.295-54.248-121.295-121.905v-243.809c67.048 0 121.295-54.857 121.295-121.905s-54.247-121.904-121.905-121.904v-243.809c0-67.050 54.857-121.907 121.905-121.907h975.242c67.043 0 121.9 54.857 121.9 121.907v243.809c-67.043 0-121.9 54.857-121.9 121.904s54.857 121.905 121.9 121.905zM1145.907 658.902c-72.536-42.058-121.907-121.296-121.907-210.896s49.371-168.838 121.907-210.895v-154.818h-975.242v154.818c72.534 42.057 121.905 121.295 121.905 210.895 0 90.21-48.762 168.838-121.295 210.896l-0.61 154.819h975.242v-154.819zM597.333 265.149h121.904v-121.906h-121.904v121.906zM597.333 508.959h121.904v-121.905h-121.904v121.905zM597.333 752.768h121.904v-121.905h-121.904v121.905z" />
<glyph unicode="&#xe912;" glyph-name="tick" horiz-adv-x="1280" d="M480-64l-432 432c-64 64-64 160 0 224s160 64 224 0l208-208 528 528c64 64 160 64 224 0s64-160 0-224l-752-752z" />
<glyph unicode="&#xe913;" glyph-name="download" d="M896 256v-192h-768v192h-128v-192c0-70.4 57.6-128 128-128h768c70.4 0 128 57.6 128 128v192h-128zM832 512l-90.24 90.24-165.76-165.12v522.88h-128v-522.88l-165.76 165.12-90.24-90.24 320-320 320 320z" />
<glyph unicode="&#xe914;" glyph-name="share" d="M811.008-56.832h-598.016c-49.408 0-89.6 40.192-89.6 89.6v538.368c0 49.408 40.192 89.6 89.6 89.6h188.672v-59.904h-188.672c-16.384 0-29.952-13.312-29.952-29.952v-538.368c0-16.384 13.312-29.952 29.952-29.952h598.016c16.384 0 29.952 13.312 29.952 29.952v538.624c0 16.384-13.312 29.952-29.952 29.952h-188.672v59.904h188.672c49.408 0 89.6-40.192 89.6-89.6v-538.368c0-49.408-40.192-89.856-89.6-89.856zM712.448 771.84l-179.456 179.456c-5.12 5.376-12.8 8.704-20.992 8.704s-15.872-3.328-21.248-8.704l-179.456-179.456c-11.776-11.776-11.776-30.72 0-42.24 11.776-11.776 30.72-11.776 42.24 0l128.256 128.256v-525.824c0-16.64 13.312-29.952 29.952-29.952s29.952 13.312 29.952 29.952v525.824l128.512-128.256c5.888-5.888 13.568-8.704 21.248-8.704s15.36 2.816 21.248 8.704c11.52 11.52 11.52 30.464-0.256 42.24z" />
<glyph unicode="&#xe915;" glyph-name="card" horiz-adv-x="1303" d="M1148.113 944.477h-992.97c-68.887 0-123.501-55.234-123.501-124.121l-0.621-744.729c0-68.887 55.234-124.118 124.121-124.118h992.97c68.887 0 124.123 55.231 124.123 124.118v744.729c0 68.887-55.235 124.121-124.123 124.121zM1148.113 75.627h-992.97v372.364h992.97v-372.364zM1148.113 696.235h-992.97v124.121h992.97v-124.121z" />
<glyph unicode="&#xe916;" glyph-name="bank" horiz-adv-x="989" d="M258.931 524.507h-141.241v-329.562h141.241v329.562zM564.966 524.507h-141.241v-329.562h141.241v329.562zM965.145 100.783h-941.61v-141.241h941.61v141.241zM870.983 524.507h-141.241v-329.562h141.241v329.562zM494.338 948.233l-470.803-235.402v-94.161h941.61v94.161l-470.807 235.402z" />
<glyph unicode="&#xe917;" glyph-name="tick-circle" d="M512.004 935.616c-269.166 0-487.62-218.453-487.62-487.62s218.453-487.618 487.62-487.618c269.166 0 487.618 218.452 487.618 487.618s-218.452 487.62-487.618 487.62zM512.004 57.904c-215.041 0-390.096 175.053-390.096 390.093s175.055 390.096 390.096 390.096c215.040 0 390.093-175.055 390.093-390.096s-175.053-390.093-390.093-390.093zM735.821 663.525l-321.342-321.34-126.293 125.806-68.754-68.754 195.047-195.046 390.096 390.093-68.754 69.243z" />
<glyph unicode="&#xe918;" glyph-name="close" d="M602.561 447.989l402.675 402.675c25.018 24.996 25.018 65.554 0 90.551-25.018 25.018-65.533 25.018-90.551 0l-402.675-402.675-402.697 402.675c-25.018 25.018-65.533 25.018-90.551 0-25.018-24.996-25.018-65.554 0-90.551l402.697-402.675-402.697-402.675c-25.018-24.996-25.018-65.554 0-90.551 12.509-12.488 28.903-18.742 45.275-18.742s32.766 6.254 45.275 18.763l402.697 402.675 402.675-402.675c12.509-12.509 28.903-18.763 45.275-18.763s32.766 6.254 45.275 18.763c25.018 24.996 25.018 65.554 0 90.551l-402.675 402.654z" />
<glyph unicode="&#xe919;" glyph-name="clock" d="M512 949.76c-276.685 0-501.76-225.075-501.76-501.76s225.075-501.76 501.76-501.76c276.685 0 501.76 225.075 501.76 501.76s-225.075 501.76-501.76 501.76v0zM512 31.949c-229.376 0-416.051 186.675-416.051 416.051s186.675 416.051 416.051 416.051c229.376 0 416.051-186.675 416.051-416.051s-186.675-416.051-416.051-416.051v0zM333.107 448c-19.866 0-35.942-15.974-35.942-35.84s16.077-35.84 35.942-35.84h215.040c19.866 0 35.84 15.974 35.84 35.84v286.618c0 19.866-15.974 35.942-35.84 35.942s-35.84-16.077-35.84-35.942v-250.778h-179.2z" />
<glyph unicode="&#xe91a;" glyph-name="emergency-phone" d="M760.531 796.079h-64v-99.546h-99.546v-64h99.546v-99.543h64v99.543h99.543v64h-99.543zM728.531 960c-162.921 0-295.467-132.546-295.467-295.467 0-54.313 14.675-106.827 42.592-152.879l-49.999-149.995 149.997 49.999c46.048-27.915 98.562-42.592 152.877-42.592 162.921 0 295.467 132.546 295.467 295.467s-132.546 295.467-295.467 295.467zM728.531 433.067c-46.812 0-91.904 13.907-130.404 40.218l-13.109 8.958-58.165-19.388 19.388 58.163-8.958 13.111c-26.31 38.502-40.218 83.597-40.218 130.406 0 127.631 103.836 231.467 231.467 231.467s231.467-103.836 231.467-231.467-103.836-231.469-231.467-231.469zM520.811 214.182l-242.628 242.633 71.949 71.947-224.734 224.732-22.588-20.781c-9.751-8.971-95.473-89.758-102.208-162.822-5.6-60.798 29.271-135.142 59.514-186.801 41.513-70.914 100.649-145.591 171.014-215.957 140.407-140.41 293.21-231.132 389.278-231.132 4.595 0 9.129 0.203 13.481 0.604 73.062 6.737 153.85 92.457 162.82 102.208l20.781 22.588-224.73 224.732-71.949-71.949zM628.015 0.333c-2.404-0.222-4.964-0.333-7.605-0.333-77.506 0-218.976 87.334-344.026 212.384-146.944 146.946-217.903 288.124-212.051 351.633 2.645 28.687 32.9 69.988 60.23 99.802l135.057-135.059-71.949-71.947 333.139-333.137 71.949 71.949 134.995-134.995c-27.136-24.836-69.084-57.47-99.74-60.297z" />
<glyph unicode="&#xe91b;" glyph-name="filters" d="M896 780.8v85.333c0 25.6-17.067 42.667-42.667 42.667s-42.667-17.067-42.667-42.667v-76.8c-76.8-25.6-128-93.867-128-170.667s51.2-145.067 128-162.133v-401.067c0-25.6 17.067-42.667 42.667-42.667s42.667 17.067 42.667 42.667v401.067c76.8 17.067 128 85.333 128 162.133s-51.2 145.067-128 162.133zM896 550.4c-8.533-8.533-25.6-17.067-42.667-17.067s-34.133 8.533-42.667 17.067c-25.6 8.533-42.667 34.133-42.667 68.267s17.067 59.733 42.667 68.267c8.533 8.533 25.6 17.067 42.667 17.067s34.133-8.533 42.667-17.067c25.6-8.533 42.667-34.133 42.667-68.267s-17.067-59.733-42.667-68.267zM563.2 610.133v256c0 25.6-17.067 42.667-42.667 42.667s-42.667-17.067-42.667-42.667v-247.467c-76.8-17.067-136.533-85.333-136.533-170.667s59.733-153.6 136.533-170.667v-221.867c0-25.6 17.067-42.667 42.667-42.667s42.667 17.067 42.667 42.667v230.4c68.267 25.6 119.467 85.333 119.467 162.133s-51.2 136.533-119.467 162.133zM563.2 379.733c-17.067-8.533-34.133-17.067-51.2-17.067-8.533 0-25.6 0-34.133 8.533-34.133 8.533-51.2 42.667-51.2 76.8s17.067 68.267 51.2 76.8c8.533 8.533 25.6 8.533 34.133 8.533 17.067 0 34.133-8.533 51.2-17.067 17.067-17.067 34.133-42.667 34.133-68.267s-17.067-51.2-34.133-68.267zM213.333 439.467v426.667c0 25.6-17.067 42.667-42.667 42.667s-42.667-17.067-42.667-42.667v-418.133c-76.8-25.6-128-93.867-128-170.667s51.2-145.067 128-162.133v-59.733c0-25.6 17.067-42.667 42.667-42.667s42.667 17.067 42.667 42.667v59.733c76.8 17.067 128 85.333 128 162.133s-51.2 145.067-128 162.133zM213.333 209.067c-8.533-8.533-25.6-17.067-42.667-17.067s-34.133 8.533-42.667 17.067c-25.6 8.533-42.667 34.133-42.667 68.267s17.067 59.733 42.667 68.267c8.533 8.533 25.6 17.067 42.667 17.067s34.133-8.533 42.667-17.067c25.6-8.533 42.667-34.133 42.667-68.267s-17.067-59.733-42.667-68.267z" />
<glyph unicode="&#xe91c;" glyph-name="target" d="M611.4 18.6c0-11 9-19.8 19.8-19.8 11 0 19.8 9 19.8 19.8 0 11-9 19.8-19.8 19.8s-19.8-8.8-19.8-19.8zM412.6 877.4c0 11-9 19.8-19.8 19.8s-19.8-9-19.8-19.8 9-19.8 19.8-19.8 19.8 8.8 19.8 19.8zM78.8 525.6c-3.8 0-7.4 0.6-11 1.6-21.6 6.2-34.2 28.6-28 50.2 36.2 128 138 250 259.6 310.8 5.6 2.8 11.8 4.2 18 4.2 15.4 0 29.2-8.6 36.4-22.4 10.2-19.8 2-44.4-18-54.6-102.4-51-187.8-153-217.8-260.2-5-17.4-21-29.6-39.2-29.6v0zM945 525.4c-18 0-34.2 12.2-39 29.6-37.6 134-152.8 249.2-286.8 286.8-10.4 3-19.2 9.8-24.4 19.2-5.4 9.4-6.6 20.4-3.6 31 5 17.4 21 29.6 39 29.6 3.8 0 7.4-0.6 11-1.6 160.2-45 298-182.8 343-343 6-21.6-6.6-44-28-50.2-3.8-0.8-7.6-1.4-11.2-1.4v0zM706.6 3.8c-15.6 0-29.4 8.6-36.4 22.6-5 10-5.8 21.2-2.2 31.4s11 18.4 20.8 23.2c102 50.8 187.2 152.8 217.2 259.8 5 17.4 21 29.6 39.2 29.6 3.8 0 7.4-0.6 11-1.6 21.6-6.2 34.2-28.6 28-50.2-36.2-128-138-250-259.6-310.8-5.6-2.6-11.8-4-18-4v0zM394-25.6c-3.8 0-7.4 0.6-11 1.6-160.2 45-298 182.8-343 343-3 10.4-1.6 21.4 3.6 30.8 5.4 9.4 14 16.2 24.4 19.2 3.6 1 7.4 1.6 11 1.6 18 0 34.2-12.2 39-29.6 37.6-133.8 152.8-249 286.8-286.8 10.4-3 19.2-9.8 24.4-19.2 5.4-9.4 6.6-20.4 3.6-31-4.6-17.4-20.8-29.6-38.8-29.6v0zM571.6 897.2c0 32.8-26.8 59.6-59.6 59.6s-59.6-26.8-59.6-59.6 26.8-59.6 59.6-59.6 59.6 26.8 59.6 59.6zM961.2 507.6c-32.8 0-59.6-26.8-59.6-59.6s26.8-59.6 59.6-59.6 59.6 26.8 59.6 59.6-26.8 59.6-59.6 59.6zM3.2 448c0-32.8 26.8-59.6 59.6-59.6s59.6 26.8 59.6 59.6-26.8 59.6-59.6 59.6-59.6-26.8-59.6-59.6zM452.4-1.2c0-32.8 26.8-59.6 59.6-59.6s59.6 26.8 59.6 59.6-26.8 59.6-59.6 59.6-59.6-26.8-59.6-59.6zM296 300.8v-48c0-13.2 10.8-23.8 23.8-23.8h383.8c13.2 0 23.8 10.8 23.8 23.8v48c0 92.6-75.2 168-168 168h-96c-91.8-0.2-167.4-75.6-167.4-168zM623.6 588.4c0 61.4-50 111.6-111.6 111.6s-111.6-50-111.6-111.6 50-111.6 111.6-111.6 111.6 50.2 111.6 111.6z" />
<glyph unicode="&#xe91d;" glyph-name="search" d="M954.105 76.478l-0.015 0.015-123.034 120.064c64.79 75.002 103.973 172.001 103.973 277.825 0 237.94-197.764 430.761-440.065 430.761-242.299 0-440.107-192.818-440.107-430.761 0-237.94 197.806-430.803 440.107-430.803 97.893 0 188.476 31.466 261.677 84.626l126.025-122.902c9.94-9.662 22.901-14.446 35.694-14.446 12.785 0 25.856 4.754 35.833 14.614 20.012 19.624 19.888 51.471-0.088 71.007zM156.398 474.382c0 181.945 151.507 330.654 338.567 330.654 187.015 0 338.521-148.707 338.521-330.654 0-181.949-151.509-330.693-338.521-330.693-187.057 0-338.567 148.746-338.567 330.693z" />
<glyph unicode="&#xe91e;" glyph-name="flight" d="M778.2 544.4l210.8 210.8c22.6 22.6 35 52.8 35 84.8s-12.4 62.2-35.2 84.8c-22.6 22.8-52.8 35.2-84.8 35.2s-62.2-12.4-84.8-35.2l-210.8-210.6-426.8 213.2c-15.4 7.6-34 4.6-46.2-7.4l-84.8-84.8c-8-8-12.2-18.8-11.6-30s5.6-21.6 14.2-28.8l334.6-283-109.8-109.8h-153.2c-10.6 0-20.8-4.2-28.2-11.8l-84.8-84.6c-9.4-9.4-13.6-22.8-11-35.8s11.4-24 23.6-29.2l183.2-78.6 78.6-183.2c6.4-14.8 20.8-24.2 36.8-24.2 10.6 0 20.8 4.2 28.2 11.8l84.8 84.8c7.6 7.6 11.8 17.6 11.8 28.2v153l109.6 109.6 283-334.6c7.4-8.8 18.6-14.2 30.6-14.2 10.6 0 20.8 4.2 28.2 11.8l84.8 84.8c12.2 12.2 15.2 30.8 7.4 46.2l-213.2 426.8zM138 809.4l33.8 33.8 377.2-188.6-104.6-104.6-306.4 259.4zM379.4 258.8c-7.6-7.6-11.8-17.6-11.8-28.2v-153.2l-31.2-31.4-61.6 143.6c-4 9.4-11.6 17-21 21l-143.8 61.8 31.4 31.4h153.2c10.6 0 20.8 4.2 28.2 11.8l553 552.6c15.6 15.6 41 15.6 56.6 0s15.6-41 0-56.6l-553-552.8zM873.4 74l-259.4 306.4 104.4 104.4 188.6-377.2-33.6-33.6z" />
<glyph unicode="&#xe91f;" glyph-name="hotel" d="M232 960h-192c-22 0-40-18-40-40s18-40 40-40h32v-904c0-22 18-40 40-40h800c22 0 40 18 40 40v904h32c22 0 40 18 40 40s-18 40-40 40h-192zM712 960h-400zM632 204v-188h-240v188h240zM872 16h-160v188h40c22 0 40 18 40 40s-18 40-40 40h-480c-22 0-40-18-40-40s18-40 40-40h40v-188h-160v864h720v-864zM272 516c-22 0-40-18-40-40v-80c0-22 18-40 40-40s40 18 40 40v80c0 22-18 40-40 40zM432 516c-22 0-40-18-40-40v-80c0-22 18-40 40-40s40 18 40 40v80c0 22-18 40-40 40zM752 516c-22 0-40-18-40-40v-80c0-22 18-40 40-40s40 18 40 40v80c0 22-18 40-40 40zM712 734.6v-80c0-22 18-40 40-40s40 18 40 40v80c0 22-18 40-40 40s-40-18-40-40zM432 774.6c-22 0-40-18-40-40v-80c0-22 18-40 40-40s40 18 40 40v80c0 22-18 40-40 40zM592 516c-22 0-40-18-40-40v-80c0-22 18-40 40-40s40 18 40 40v80c0 22-18 40-40 40zM592 774.6c-22 0-40-18-40-40v-80c0-22 18-40 40-40s40 18 40 40v80c0 22-18 40-40 40zM272 774.6c-22 0-40-18-40-40v-80c0-22 18-40 40-40s40 18 40 40v80c0 22-18 40-40 40z" />
<glyph unicode="&#xe920;" glyph-name="matchticket" d="M578 696v-73.2c0-20.2 16.4-36.6 36.6-36.6s36.6 16.4 36.6 36.6v73.2c0 20.2-16.4 36.6-36.6 36.6s-36.6-16.4-36.6-36.6zM724.4 769.2v-219.6c0-20.2 16.4-36.6 36.6-36.6s36.6 16.4 36.6 36.6v219.6c0 20.2-16.4 36.6-36.6 36.6s-36.6-16.4-36.6-36.6zM7 842.4v-366c0-60.6 49.2-109.8 109.8-109.8h424.6c28.2 0 53.8 10.6 73.2 28 19.4-17.4 45.2-28 73.2-28h146.4c60.6 0 109.8 49.2 109.8 109.8v366c0 60.6-49.2 109.8-109.8 109.8h-146.4c-28.2 0-53.8-10.6-73.2-28-19.4 17.4-45.2 28-73.2 28h-424.4c-60.6 0-109.8-49.2-110-109.8zM80.2 476.4v366c0 20.2 16.4 36.6 36.6 36.6h424.6c20.2 0 36.6-16.4 36.6-36.6s16.4-36.6 36.6-36.6 36.6 16.4 36.6 36.6 16.4 36.6 36.6 36.6h146.4c20.2 0 36.6-16.4 36.6-36.6v-366c0-20.2-16.4-36.6-36.6-36.6h-146.4c-20.2 0-36.6 16.4-36.6 36.6s-16.4 36.6-36.6 36.6-36.6-16.4-36.6-36.6c0-20.2-16.4-36.6-36.6-36.6h-424.4c-20.2 0-36.6 16.4-36.6 36.6h-0.2zM622 326.4l-18.4-70.8c-5.2-19.6 6.6-39.6 26.2-44.6 19.6-5.2 39.6 6.6 44.6 26.2l18.4 70.8c5.2 19.6-6.6 39.6-26.2 44.6s-39.6-6.8-44.6-26.2zM785.8 371.8l-58.4-224c-5.2-19.6 6.6-39.6 26.2-44.6 19.6-5.2 39.6 6.6 44.6 26.2l61.6 244.4zM56 418.2l-41.8-161.2c-15.2-58.6 20.2-118.6 78.8-133.8l411-106.4c27.2-7 54.6-3.2 77.8 8.8 14.4-21.8 36.6-38.6 63.8-45.6l141.8-36.8c58.6-15.2 118.6 20.2 133.8 78.8l91.8 354.2c15.2 58.6-20.2 118.6-78.8 133.8l-18.2-70.8c19.4-5 31.2-25 26.2-44.6l-91.8-354.4c-5-19.4-25-31.2-44.6-26.2l-141.8 36.8c-19.4 5-31.2 25-26.2 44.6 5.2 19.6-6.6 39.6-26.2 44.6-19.6 5.2-39.6-6.6-44.6-26.2-5-19.4-25-31.2-44.6-26.2l-411 106.4c-19.4 5-31.2 25-26.2 44.6l35 134.6z" />
<glyph unicode="&#xe924;" glyph-name="airport" d="M512 960c-235.605 0-426.667-187.477-426.667-418.773 0-234.88 186.667-395.435 426.667-605.227 240 209.792 426.667 370.347 426.667 605.227 0 231.296-191.061 418.773-426.667 418.773zM512 192c-188.544 0-341.333 152.832-341.333 341.333s152.789 341.333 341.333 341.333c188.544 0 341.333-152.832 341.333-341.333s-152.789-341.333-341.333-341.333zM357.973 499.285l120.789 59.819-123.819 105.6 38.315 18.944 200.405-67.669 95.744 47.403c25.259 12.672 66.944 9.259 76.416-9.856 1.493-3.029 2.176-6.485 2.176-10.197-0.085-19.541-19.627-45.995-40.661-56.533l-95.744-47.403-67.669-200.448-38.315-18.944-8.917 162.475-120.832-59.776-24.917-60.075-26.795-13.227-9.344 90.709-66.517 62.464 26.795 13.269 62.891-16.555z" />
<glyph unicode="&#xe95e;" glyph-name="whatsapp" d="M874.816 811.19c-96.262 95.915-224.282 148.753-360.673 148.81-281.034 0-509.753-227.612-509.868-507.38-0.034-89.43 23.437-176.722 68.058-253.682l-72.333-262.938 270.288 70.566c74.471-40.429 158.317-61.734 243.65-61.76h0.205c0.012 0-0.011 0 0 0 280.999 0 509.741 227.635 509.857 507.415 0.058 135.578-52.922 263.054-149.184 358.968zM307.089 434.153c-6.368 8.465-52.018 68.745-52.018 131.152s32.914 93.082 44.587 105.768c11.672 12.686 25.483 15.86 33.977 15.86s17-0.079 24.42-0.444c7.82-0.398 18.326 2.958 28.662-21.766 10.621-25.384 36.092-87.802 39.282-94.14 3.19-6.349 5.305-13.745 1.063-22.209-4.241-8.454-6.367-13.745-12.735-21.151s-13.376-16.532-19.116-22.21c-6.38-6.326-13.021-13.187-5.59-25.873 7.431-12.698 32.995-54.215 70.87-87.837 48.657-43.201 89.711-56.582 102.447-62.931s20.167-5.29 27.598 3.174c7.431 8.465 31.851 37.023 40.346 49.71s16.991 10.57 28.664 6.349c11.68-4.233 74.31-34.908 87.046-41.245 12.736-6.349 21.229-9.523 24.416-14.814 3.194-5.29 3.194-30.671-7.43-60.291-10.618-29.619-61.517-56.653-85.997-60.282-21.946-3.264-49.718-4.627-80.243 5.030-18.498 5.837-42.232 13.645-72.631 26.707-127.781 54.918-211.239 182.975-217.618 191.439z" />
<glyph unicode="&#xe961;" glyph-name="profile" horiz-adv-x="945" d="M472.615 369.231c-149.662 0-275.692 126.031-275.692 275.692s126.031 275.692 275.692 275.692 275.692-126.031 275.692-275.692-126.031-275.692-275.692-275.692zM472.615 841.846c-110.277 0-196.923-86.646-196.923-196.923s86.646-196.923 196.923-196.923c110.277 0 196.923 86.646 196.923 196.923s-86.646 196.923-196.923 196.923zM905.846-64h-78.769v78.769c0 110.277-86.646 196.923-196.923 196.923h-315.077c-110.277 0-196.923-86.646-196.923-196.923v-78.769h-78.769v78.769c0 149.662 126.031 275.692 275.692 275.692h315.077c149.662 0 275.692-126.031 275.692-275.692v-78.769z" />
<glyph unicode="&#xe966;" glyph-name="calendar" horiz-adv-x="939" d="M651.908 960.010c17.946 0 32.777-13.438 35.123-30.874l0.324-4.847 0.004-40.376c145.566-9.981 234.701-104.070 234.24-255.976v-434.62c0-161.015-100.079-257.31-260.932-257.31h-399.74c-160.661 0-260.928 97.937-260.928 260.915v431.014c0 151.851 89.422 245.966 234.672 255.971l0.004 40.38c0 19.728 15.87 35.721 35.446 35.721 17.945 0 32.775-13.438 35.122-30.874l0.324-4.847-0.007-39.492h310.886l0.017 39.492c0 19.728 15.868 35.721 35.443 35.721zM850.688 535.921h-779.827l0.031-338.997c0-119.049 63.721-185.126 178.399-189.265l11.637-0.205h399.74c122.415 0 190.037 65.067 190.037 185.865l-0.017 342.602zM671.177 236.245c19.575 0 35.443-15.991 35.443-35.721 0-18.082-13.333-33.028-30.635-35.396l-4.809-0.324c-20.015 0-35.887 15.991-35.887 35.721 0 18.086 13.338 33.028 30.639 35.396l5.248 0.324zM461.453 236.245c19.575 0 35.447-15.991 35.447-35.721 0-18.082-13.333-33.028-30.635-35.396l-4.813-0.324c-20.015 0-35.883 15.991-35.883 35.721 0 18.086 13.333 33.028 30.635 35.396l5.248 0.324zM251.296 236.245c19.576 0 35.446-15.991 35.446-35.721 0-18.082-13.335-33.028-30.636-35.396l-5.248-0.324c-19.576 0-35.446 15.991-35.446 35.721 0 18.086 13.335 33.028 30.636 35.396l5.248 0.324zM671.177 421.355c19.575 0 35.443-15.996 35.443-35.721 0-18.086-13.333-33.033-30.635-35.396l-4.809-0.324c-20.015 0-35.887 15.991-35.887 35.721 0 18.082 13.338 33.028 30.639 35.392l5.248 0.329zM461.453 421.355c19.575 0 35.447-15.996 35.447-35.721 0-18.086-13.333-33.033-30.635-35.396l-4.813-0.324c-20.015 0-35.883 15.991-35.883 35.721 0 18.082 13.333 33.028 30.635 35.392l5.248 0.329zM251.296 421.355c19.576 0 35.446-15.996 35.446-35.721 0-18.086-13.335-33.033-30.636-35.396l-5.248-0.324c-19.576 0-35.446 15.991-35.446 35.721 0 18.082 13.335 33.028 30.636 35.392l5.248 0.329zM616.448 813.373h-310.886l0.007-45.817c0-19.728-15.87-35.721-35.446-35.721-17.945 0-32.775 13.438-35.122 30.874l-0.324 4.847-0.050 44.731c-105.659-8.866-163.735-72.775-163.735-184.349l-0.031-20.542h779.827l0.017 20.652c0.341 111.662-57.438 175.439-163.349 184.251v-44.742c0-19.728-15.868-35.721-35.447-35.721-17.941 0-32.772 13.438-35.119 30.874l-0.324 4.847-0.017 45.817z" />
<glyph unicode="&#xe96c;" glyph-name="landing" horiz-adv-x="1078" d="M997.053 43.789h-916.211c-29.642 0-53.895-24.253-53.895-53.895s24.253-53.895 53.895-53.895h916.211c29.642 0 53.895 24.253 53.895 53.895s-24.253 53.895-53.895 53.895zM81.381 442.072l853.154-228.514c43.116-11.318 87.309 14.013 99.166 57.128 11.318 43.116-14.013 87.309-57.128 99.166l-286.181 76.531-139.048 455.411c-2.851 9.446-8.057 18.013-15.126 24.895-7.071 6.882-15.775 11.854-25.295 14.448-36.648 9.701-72.758-17.785-72.758-56.051v-370.796l-268.396 71.141-40.421 100.244c-3.112 7.755-8 14.673-14.271 20.195s-13.751 9.497-21.838 11.602l-17.785 4.851c-3.985 1.13-8.178 1.316-12.247 0.544s-7.903-2.48-11.197-4.99c-3.294-2.51-5.959-5.753-7.783-9.471s-2.757-7.81-2.726-11.952v-202.105c0-24.792 16.168-45.811 39.882-52.278z" />
<glyph unicode="&#xe96d;" glyph-name="ball" d="M813.7 749.696c-39.492 39.805-86.485 71.381-138.266 92.899s-107.315 32.549-163.388 32.456c-56.081 0.088-111.628-10.946-163.42-32.463s-98.805-53.090-138.317-92.892c-166.357-166.315-166.357-437.035 0-603.392 39.513-39.812 86.531-71.394 138.333-92.911s107.358-32.546 163.447-32.444c56.073-0.098 111.603 10.927 163.383 32.435 51.776 21.513 98.778 53.077 138.27 92.877 166.357 166.315 166.357 437.035-0.043 603.435zM519.727 789.333h-15.317c2.603 0.043 5.077 0.384 7.68 0.384s5.035-0.341 7.637-0.384zM778.372 234.667h-95.701l-53.675-107.349c-37.44-13.833-77.030-20.954-116.949-21.035-39.987 0.073-79.654 7.206-117.161 21.077l-53.547 106.88h-95.36c-35.181 43.738-58.973 95.514-69.248 150.699l79.275 105.728-51.883 103.808c16.555 35.217 39.057 67.318 66.517 94.891 38.434 38.568 85.542 67.375 137.387 84.011l103.977-69.376 104.021 69.333c51.831-16.648 98.935-45.436 137.387-83.968 27.43-27.54 49.92-59.596 66.475-94.763l-51.883-103.936 79.275-105.728c-10.227-55.006-33.899-106.628-68.907-150.272zM362.667 490.667l64-170.667h170.667l64 170.667-149.333 106.667-149.333-106.667z" />
<glyph unicode="&#xe96e;" glyph-name="double-room" d="M934.4 525.103v127.087c0 75.429-63.36 137.143-140.8 137.143h-187.733c-36.139 0-68.992-13.714-93.867-35.657-24.875 21.943-57.728 35.657-93.867 35.657h-187.733c-77.44 0-140.8-61.714-140.8-137.143v-127.087c-28.629-25.139-46.933-61.257-46.933-101.483v-274.287h93.867v91.43h750.933v-91.43h93.867v274.287c0 40.226-18.304 76.343-46.933 101.483zM605.867 697.905h187.733c25.813 0 46.933-20.571 46.933-45.714v-91.428h-281.6v91.428c0 25.143 21.12 45.714 46.933 45.714zM183.467 652.19c0 25.143 21.12 45.714 46.933 45.714h187.733c25.813 0 46.933-20.571 46.933-45.714v-91.428h-281.6v91.428zM136.533 332.19v91.43c0 25.143 21.12 45.713 46.933 45.713h657.067c25.813 0 46.933-20.57 46.933-45.713v-91.43h-750.933z" />
<glyph unicode="&#xe96f;" glyph-name="family-room" d="M319.96 533.333c-35.346 0-64 28.654-64 64s28.654 64 64 64c35.346 0 64-28.654 64-64s-28.654-64-64-64zM246.531 467.268c-45.317 25.643-75.904 74.281-75.904 130.065 0 82.475 66.859 149.333 149.333 149.333s149.335-66.859 149.335-149.333c0-47.432-22.114-89.698-56.594-117.052 5.35-1.702 10.641-3.605 15.856-5.713 4.173-1.685 8.286-3.494 12.335-5.427 20.331 13.598 44.774 21.525 71.070 21.525 27.43 0 52.851-8.631 73.685-23.326 5.018 2.56 10.138 4.924 15.356 7.087 3.934 1.63 7.906 3.136 11.917 4.523-35.452 27.307-58.291 70.176-58.291 118.383 0 82.475 66.859 149.333 149.333 149.333s149.333-66.859 149.333-149.333c0-55.322-30.084-103.616-74.782-129.421 20.297-10.21 38.865-23.616 54.98-39.731 19.81-19.81 35.524-43.328 46.242-69.21 10.722-25.882 16.239-53.623 16.239-81.638h-85.333c0 16.811-3.311 33.455-9.741 48.986-6.434 15.526-15.863 29.636-27.746 41.523-11.887 11.887-25.997 21.316-41.527 27.746-15.531 6.434-32.175 9.745-48.986 9.745-16.149 0-32.149-3.055-47.155-9.003 2.918-10.726 4.476-22.012 4.476-33.664 0-42.3-20.523-79.812-52.151-103.117 16.567-8.218 31.714-19.089 44.83-32.205 15.846-15.846 28.42-34.662 36.996-55.369s12.992-42.897 12.992-65.31h-85.333c0 11.204-2.21 22.302-6.498 32.657-4.288 10.351-10.573 19.759-18.496 27.682s-17.331 14.208-27.686 18.5c-10.351 4.288-21.449 6.494-32.653 6.494-11.209 0-22.306-2.206-32.657-6.494-10.355-4.292-19.759-10.577-27.686-18.5-7.923-7.923-14.208-17.331-18.496-27.682-4.288-10.355-6.496-21.453-6.496-32.657h-85.333c0 22.413 4.414 44.604 12.991 65.31s21.148 39.522 36.996 55.369c13.114 13.116 28.26 23.987 44.829 32.205-31.629 23.305-52.149 60.817-52.149 103.117 0 12.352 1.75 24.294 5.015 35.597-13.911 4.668-28.563 7.070-43.353 7.070-17.517 0-34.839-3.366-50.968-9.886-16.127-6.515-30.712-16.038-42.95-27.977-12.236-11.934-21.884-26.048-28.446-41.502s-9.924-31.974-9.924-48.636h-85.333c0 28.164 5.688 56.026 16.712 81.988 11.022 25.958 27.148 49.472 47.405 69.235 16.030 15.633 34.399 28.681 54.414 38.711zM767.962 597.333c0-35.346-28.655-64-64-64-35.349 0-64 28.654-64 64s28.651 64 64 64c35.345 0 64-28.654 64-64zM511.962 320c23.561 0 42.667 19.102 42.667 42.667s-19.106 42.667-42.667 42.667c-23.565 0-42.667-19.102-42.667-42.667s19.102-42.667 42.667-42.667z" />
<glyph unicode="&#xe970;" glyph-name="single-room" d="M800 554.453v106.88c0 70.4-57.6 128-128 128h-320c-70.4 0-128-57.6-128-128v-106.88c-56.32-22.4-96-76.8-96-140.8v-264.32h96v96h576v-96h96v264.32c0 64-39.68 118.4-96 140.8zM704 693.333v-128h-384v128h384zM224 413.653c0 30.72 24.96 55.68 55.68 55.68h465.28c30.72 0 55.68-24.96 55.68-55.68v-72.32h-576v72.32h-0.64z" />
<glyph unicode="&#xe971;" glyph-name="twin-room" d="M614.4 509.44v95.005c0 62.577-52.663 113.777-117.030 113.777h-292.57c-64.366 0-117.029-51.2-117.029-113.777v-95.005c-51.492-19.913-87.771-68.267-87.771-125.154v-234.953h87.771v85.333h526.629v-85.333h87.77v234.953c0 56.887-36.275 105.242-87.77 125.154zM526.63 632.889v-113.776h-351.087v113.776h351.087zM87.771 384.286c0 27.307 22.821 49.493 50.908 49.493h425.4c28.087 0 50.906-22.187 50.906-49.493v-64.286h-526.628v64.286h-0.585zM936.23 718.222v-95.004c51.49-19.911 87.77-68.267 87.77-125.157v-234.948h-87.77v85.333h-234.061l-58.513 85.333h293.158v64.282c0 27.307-22.822 49.495-50.91 49.495h-300.762l-58.513 85.333h321.826v113.778h-351.087v-28.445h-87.77c0 62.578 52.663 113.778 117.030 113.778h292.57c64.367 0 117.030-51.2 117.030-113.778z" />
<glyph unicode="&#xe973;" glyph-name="info" d="M492.667-9.499c-263.705 0-476.863 213.679-476.863 476.862 0 263.276 213.158 476.863 476.863 476.863 263.226 0 476.862-213.587 476.862-476.863 0-263.183-213.637-476.862-476.862-476.862zM492.667 607.131c22.889 0.001 41.487 18.598 41.487 41.488s-18.598 41.964-41.964 41.964c-22.889 0-41.487-19.074-41.487-41.964s18.598-41.488 41.964-41.488zM492.667 244.67c22.889 0 41.964 19.119 41.964 41.96v210.775c0 22.937-19.074 41.487-41.964 41.487s-41.487-18.55-41.487-41.487v-210.775c0-22.841 18.598-41.96 41.487-41.96z" />
<glyph unicode="&#xea15;" glyph-name="circle-play" d="M512 960c-282.77 0-512-229.23-512-512s229.23-512 512-512 512 229.23 512 512-229.23 512-512 512zM512 32c-229.75 0-416 186.25-416 416s186.25 416 416 416 416-186.25 416-416-186.25-416-416-416zM384 672l384-224-384-224z" />
<glyph unicode="&#xea1c;" glyph-name="play" d="M192 832l640-384-640-384z" />
</font>
</defs>
</svg>
